<?xml version="1.0" standalone="no"?>
<!DOCTYPE svg PUBLIC "-//W3C//DTD SVG 1.1//EN" "http://www.w3.org/Graphics/SVG/1.1/DTD/svg11.dtd" >
<svg xmlns="http://www.w3.org/2000/svg" xmlns:xlink="http://www.w3.org/1999/xlink" version="1.1">
<metadata>
Created by FontForge 20170731 at Tue Jul  2 19:18:53 2013
 By Aleksey,,,
Copyright (c) 2010-13 by Vernon Adams
</metadata>
<defs>
<font id="Oswald-Bold" horiz-adv-x="915" >
  <font-face 
    font-family="Oswald"
    font-weight="700"
    font-stretch="normal"
    units-per-em="2048"
    panose-1="2 0 8 3 0 0 0 0 0 0"
    ascent="1638"
    descent="-410"
    x-height="1184"
    cap-height="1658"
    bbox="-188 -733 3967 2257"
    underline-thickness="90"
    underline-position="-353"
    unicode-range="U+0020-FB04"
  />
<missing-glyph horiz-adv-x="748" 
d="M68 0v1365h544v-1365h-544zM136 68h408v1229h-408v-1229z" />
    <glyph glyph-name=".notdef" horiz-adv-x="748" 
d="M68 0v1365h544v-1365h-544zM136 68h408v1229h-408v-1229z" />
    <glyph glyph-name=".null" horiz-adv-x="0" 
 />
    <glyph glyph-name="nonmarkingreturn" horiz-adv-x="682" 
 />
    <glyph glyph-name="space" unicode=" " horiz-adv-x="526" 
 />
    <glyph glyph-name="exclam" unicode="!" horiz-adv-x="524" 
d="M195 421l-96 1233h332l-120 -1233h-116zM93 0v311h315v-311h-315z" />
    <glyph glyph-name="quotedbl" unicode="&#x22;" horiz-adv-x="730" 
d="M439 1044v614h285l-131 -614h-154zM58 1044v614h285l-131 -614h-154z" />
    <glyph glyph-name="numbersign" unicode="#" horiz-adv-x="1093" 
d="M452 761h161l27 232h-160zM140 -1l65 553h-111l5 209h136l26 232h-160l5 212h192l52 453h221l-53 -453h158l52 453h220l-54 -453h106l-5 -212h-137l-27 -232h161l-5 -209h-186l-66 -553h-217l64 553h-159l-66 -553h-217z" />
    <glyph glyph-name="dollar" unicode="$" horiz-adv-x="997" 
d="M477 -221v199q-214 10 -319 136.5t-113 388.5l314 48q2 -156 37.5 -226.5t106.5 -70.5q93 0 93 120q0 67 -24 123.5t-59 96.5t-98 94l-147 127q-53 46 -88 84t-68.5 90.5t-49.5 116.5t-16 141q0 192 110 304t302 128v189h105v-188q65 -4 118.5 -23t89.5 -46t64 -66.5
t43.5 -77.5t26 -86t14 -86t5.5 -84l-317 -41q-1 42 -2.5 69.5t-5.5 58.5t-11 50t-18.5 35.5t-29 23.5t-41.5 6q-48 -1 -73.5 -40.5t-25.5 -88.5q0 -47 11.5 -85.5t40 -74.5t46.5 -54t60 -56l141 -124q58 -52 100 -99.5t80 -108t57.5 -133t19.5 -155.5q0 -166 -102.5 -281
t-273.5 -133v-201h-103z" />
    <glyph glyph-name="percent" unicode="%" horiz-adv-x="2072" 
d="M688 0l504 1658h189l-504 -1658h-189zM1589 -3q-208 0 -299 108t-91 335v70q0 230 88.5 331.5t301.5 101.5t302.5 -100.5t89.5 -328.5v-76q0 -226 -91.5 -333.5t-300.5 -107.5zM1589 212q31 0 52.5 11t33.5 28.5t18.5 51t8 65t1.5 84.5v50q0 56 -1 84t-7 60.5t-18 46.5
t-33.5 23.5t-54.5 9.5t-54.5 -9.5t-33.5 -24t-17.5 -46t-7 -60.5t-1.5 -83v-52q0 -53 1.5 -84.5t8 -65t18.5 -50.5t33.5 -28t52.5 -11zM481 715q-209 0 -299.5 108t-90.5 335v70q0 230 88.5 331.5t301.5 101.5t302.5 -100.5t89.5 -328.5v-76q0 -226 -91.5 -333.5
t-300.5 -107.5zM481 930q31 0 52.5 11t33.5 28.5t18.5 51t8 65t1.5 84.5v50q0 56 -1 84t-7 60.5t-18 46.5t-33.5 23.5t-54.5 9.5t-54.5 -9.5t-33.5 -24t-17.5 -46t-7 -60.5t-1.5 -83v-52q0 -53 1.5 -84.5t8 -65t18.5 -50.5t33.5 -28t52.5 -11z" />
    <glyph glyph-name="ampersand" unicode="&#x26;" horiz-adv-x="1169" 
d="M498 1009q112 218 112 337q0 46 -27.5 73t-67.5 27q-41 0 -67 -33t-26 -86q0 -44 14.5 -106t36.5 -130.5t25 -81.5zM466 200q95 0 150 74q-167 339 -185 381q-83 -136 -83 -268q0 -83 35.5 -135t82.5 -52zM460 -26q-167 0 -272.5 108.5t-105.5 280.5q0 142 67 280.5
t166 236.5q-18 37 -55 107t-57 111t-37.5 100.5t-17.5 113.5q0 158 96.5 264.5t256.5 106.5q161 0 265.5 -95.5t104.5 -257.5q0 -48 -8.5 -93t-28 -86.5t-36.5 -73t-49.5 -71t-50.5 -60t-55.5 -60t-50.5 -53.5l192 -358q24 42 40 144.5t19 196.5h229q0 -168 -31.5 -289
t-92.5 -238q20 -25 57.5 -43.5t77.5 -22.5v-245q-34 -9 -58 -9q-22 0 -42.5 4t-43 15.5t-36.5 18.5t-38 26.5t-32 25.5t-34 30t-28 26q-55 -68 -136 -104.5t-175 -36.5z" />
    <glyph glyph-name="quotesingle" unicode="'" horiz-adv-x="480" 
d="M89 1044v614h274l-112 -614h-162z" />
    <glyph glyph-name="parenleft" unicode="(" horiz-adv-x="692" 
d="M620 -370q-74 0 -136 17.5t-108.5 48.5t-84 80t-63 103t-44 127t-29.5 142t-17 158.5t-8 165.5t-2 174q0 136 3.5 235t15 213.5t32.5 194.5t57.5 158.5t88 125.5t126 75.5t169.5 28.5v-234q-109 0 -146.5 -191t-37.5 -606q0 -409 39.5 -595.5t144.5 -186.5v-234z" />
    <glyph glyph-name="parenright" unicode=")" horiz-adv-x="668" 
d="M72 -370v234q105 0 144.5 188t39.5 595q0 416 -37.5 606.5t-146.5 190.5v233q67 0 123.5 -13t101 -40t81 -62t63 -85.5t47 -102.5t33.5 -122t22 -134.5t13.5 -148t6 -156.5t1.5 -166q0 -98 -2 -174t-8 -165.5t-17 -158.5t-29.5 -142.5t-44 -127t-63 -103t-84 -80.5
t-108.5 -48.5t-136 -17.5z" />
    <glyph glyph-name="asterisk" unicode="*" horiz-adv-x="867" 
d="M352 921l-197 116l146 209l-219 84l75 200l200 -110l-27 237h249l-25 -239l199 112l74 -201l-220 -85l149 -206l-199 -117l-103 219z" />
    <glyph glyph-name="plus" unicode="+" horiz-adv-x="921" 
d="M348 423v328h-295v197h295v321h221v-321h298v-197h-298v-328h-221z" />
    <glyph glyph-name="comma" unicode="," horiz-adv-x="486" 
d="M137 -287l-21 109q146 34 146 178h-174v312h316l-1 -272q0 -306 -266 -327z" />
    <glyph glyph-name="hyphen" unicode="-" horiz-adv-x="790" 
d="M130 605v215h531v-215h-531z" />
    <glyph glyph-name="period" unicode="." horiz-adv-x="497" 
d="M93 0v314h317v-314h-317z" />
    <glyph glyph-name="slash" unicode="/" horiz-adv-x="865" 
d="M88 0l505 1658h183l-505 -1658h-183z" />
    <glyph glyph-name="zero" unicode="0" horiz-adv-x="1094" 
d="M548 -30q-219 0 -336 129t-117 346v752q0 226 113.5 356t339.5 130q224 0 337.5 -130.5t113.5 -355.5v-752q0 -215 -118 -345t-333 -130zM548 274q102 0 102 180v733q0 24 -0.5 38.5t-3 40.5t-9.5 42.5t-17.5 34t-29 26t-42.5 8.5q-19 0 -34.5 -4.5t-26 -16t-18 -21
t-12 -28.5t-7 -29t-3.5 -33t-1 -29.5v-28.5v-733q0 -180 102 -180z" />
    <glyph glyph-name="one" unicode="1" horiz-adv-x="1086" 
d="M426 0v1317l-231 -96v255q78 37 174 90.5t132 91.5h269v-1658h-344z" />
    <glyph glyph-name="two" unicode="2" horiz-adv-x="1085" 
d="M111 0v242l393 611q10 16 39 59t42.5 65t36 62.5t33.5 69.5t20 66.5t9 72.5q0 78 -34 116q-27 30 -70 29q-11 0 -24 -2q-59 -8 -86.5 -63t-27.5 -165v-80h-332v86q0 113 26 204.5t80 162.5t144.5 109.5t211.5 38.5q221 0 336 -115.5t115 -324.5q0 -31 -4 -62.5t-8.5 -57
t-16 -57.5t-18.5 -51.5t-25 -53t-25.5 -48t-30.5 -50t-30 -46t-33.5 -49.5t-32.5 -47l-303 -453h481v-269h-866z" />
    <glyph glyph-name="three" unicode="3" horiz-adv-x="1078" 
d="M555 -30q-127 0 -217.5 36.5t-142.5 107.5t-75.5 162.5t-23.5 212.5v59h343v-58q1 -127 26 -179.5t94 -52.5q67 0 89 51t22 170q0 130 -36.5 190t-137.5 63h-60v240h54q104 1 142 56.5t38 183.5q0 101 -26.5 149t-92.5 48q-65 0 -88 -51.5t-24 -152.5v-85h-343v100
q0 222 120.5 343t333.5 121q218 0 338 -115.5t120 -334.5q0 -141 -57.5 -240t-146.5 -123q204 -74 204 -383q0 -118 -24.5 -210t-77 -162.5t-141.5 -108t-210 -37.5z" />
    <glyph glyph-name="four" unicode="4" horiz-adv-x="1094" 
d="M326 630h246v692zM572 0v381h-504v257l429 1020h382v-1028h159v-249h-159v-381h-307z" />
    <glyph glyph-name="five" unicode="5" horiz-adv-x="1084" 
d="M550 -30q-107 0 -184.5 25t-125 67.5t-76 110t-38.5 141.5t-10 173h331q0 -148 25 -207q23 -55 91 -55h9q20 1 36 6.5t27.5 20t19.5 27.5t13 40.5t8 48t4 60t1.5 66t0.5 76.5q0 67 -4.5 113t-17 88t-39.5 63t-67 21q-106 0 -130 -151h-297l29 954h777v-287h-500l-20 -340
q23 28 79.5 49.5t123.5 27.5q23 2 44 2q157 0 245 -122q100 -140 100 -407q0 -95 -7 -168.5t-24.5 -146t-50 -124t-82 -92t-122.5 -60.5t-169 -20z" />
    <glyph glyph-name="six" unicode="6" horiz-adv-x="1092" 
d="M566 229q34 0 55 17t32 56t14.5 85.5t3.5 120.5q0 42 -0.5 65t-2.5 56t-6 51.5t-12 39.5t-19.5 31.5t-28.5 18t-39 7.5q-37 0 -67.5 -21.5t-44.5 -48.5v-266q0 -212 115 -212zM561 -24q-119 0 -208 40.5t-143 115t-80.5 172t-26.5 218.5v592q0 103 12 184.5t43 155
t82 122t131.5 77t188.5 28.5q117 0 199 -27.5t131 -83t71.5 -132.5t23.5 -183v-29h-323q0 111 -17.5 153.5t-82.5 42.5q-69 0 -90 -67t-21 -264v-147q25 43 79.5 67.5t124.5 26.5h10q90 0 157 -34q71 -36 112 -102.5t60.5 -151t19.5 -188.5q0 -136 -22.5 -238.5t-73 -183
t-140.5 -122.5t-217 -42z" />
    <glyph glyph-name="seven" unicode="7" horiz-adv-x="1026" 
d="M222 0l358 1399h-448v259h783v-233l-359 -1425h-334z" />
    <glyph glyph-name="eight" unicode="8" horiz-adv-x="1085" 
d="M542 997q102 0 102 247q0 84 -26 132t-76 48q-52 0 -78 -47.5t-26 -131.5q0 -248 104 -248zM542 226q27 0 47.5 11t32.5 32t20 43t11.5 53.5t4.5 53t1 50.5q0 36 -1 62.5t-4.5 58t-11.5 53.5t-20.5 41.5t-32.5 29t-47 9.5q-31 0 -53.5 -15t-34.5 -37.5t-19 -59
t-8.5 -67.5t-1.5 -75q0 -46 3 -79.5t13.5 -75.5t36 -65t64.5 -23zM542 -26q-123 0 -212.5 37.5t-142 108t-76.5 163.5q-22 86 -22 193v18q2 130 48.5 231.5t140.5 148.5q-70 51 -115 141t-48 218v18q0 199 106 311q111 118 321 118t320 -118q105 -113 104 -311v-18
q-3 -129 -47 -219t-114 -140q93 -48 141 -149.5t50 -230.5v-27q0 -103 -20 -185q-24 -92 -76.5 -162.5t-143 -108t-214.5 -37.5z" />
    <glyph glyph-name="nine" unicode="9" horiz-adv-x="1092" 
d="M544 880q67 0 103 70v266q0 47 -3.5 80.5t-14.5 65.5t-33 49t-56 17q-64 0 -83.5 -64t-19.5 -215q0 -51 0.5 -75.5t3.5 -63t9.5 -56.5t18 -38t30.5 -28t45 -8zM539 -24q-117 0 -199 27.5t-130.5 83.5t-70.5 133t-23 184v27h323q0 -109 19 -152.5t84 -43.5q68 0 86.5 65
t18.5 266v147q-25 -44 -78 -68t-123 -26h-9q-90 1 -158 37q-71 38 -112 108.5t-60 157t-19 191.5q0 134 24.5 235.5t77 177.5t140.5 115.5t210 39.5q235 0 346.5 -140t111.5 -388v-610q0 -103 -12 -184.5t-43.5 -155t-82.5 -122t-132 -77t-189 -28.5z" />
    <glyph glyph-name="colon" unicode=":" horiz-adv-x="564" 
d="M135 842v310h313v-310h-313zM135 119v309h313v-309h-313z" />
    <glyph glyph-name="semicolon" unicode=";" horiz-adv-x="579" 
d="M135 866v312h313v-312h-313zM185 -238l-21 108q147 23 147 168h-175v312h316v-272q0 -154 -66.5 -234.5t-200.5 -81.5z" />
    <glyph glyph-name="less" unicode="&#x3c;" horiz-adv-x="815" 
d="M698 198l-634 442v261l634 444v-293l-394 -280l394 -283v-291z" />
    <glyph glyph-name="equal" unicode="=" horiz-adv-x="907" 
d="M128 896v204h652v-204h-652zM128 508v204h652v-204h-652z" />
    <glyph glyph-name="greater" unicode="&#x3e;" horiz-adv-x="815" 
d="M112 198v291l394 283l-394 280v293l634 -444v-261z" />
    <glyph glyph-name="question" unicode="?" horiz-adv-x="993" 
d="M256 0v317h326v-317h-326zM265 435v265q150 124 243 274q84 135 84 274q0 15 -1 30q-7 119 -115 119q-45 1 -72 -31q-24 -27 -24 -71q0 -6 1 -13q0 -40 21 -106l-302 -68q-30 120 -30 174q-1 18 -1 34q-1 66 15 124q20 72 66 127.5t127.5 86.5t191.5 31q219 0 336 -110.5
t117 -309.5q0 -179 -101.5 -352t-251.5 -278v-200h-304z" />
    <glyph glyph-name="at" unicode="@" horiz-adv-x="1951" 
d="M973 441q88 17 107 63l62 479q-1 14 -20.5 21t-36.5 7q-77 0 -135.5 -58.5t-85 -142t-27.5 -173.5v-5q0 -84 32 -139q31 -52 95 -52h9zM969 -262q-304 0 -507.5 117.5t-289.5 335.5q-63 158 -63 359q0 77 9 159q20 214 97 389.5t203 300t304 192.5t393 68
q169 0 304.5 -43.5t227.5 -121.5t150.5 -187t78.5 -239q12 -77 13 -161q0 -57 -6 -118q-6 -80 -27.5 -159t-64.5 -157.5t-101 -137.5t-143.5 -96t-186.5 -37q-92 0 -166.5 39t-98.5 114q-24 -55 -76 -93t-118 -44q-17 -2 -33 -2q-90 0 -162 48q-84 56 -122 154
q-35 87 -36 194q0 14 1 27q3 75 20 155.5t54 164t89 148.5t130.5 106.5t172.5 41.5q16 0 30.5 -3t27 -10.5t22 -14t19 -18.5t15.5 -19t13 -21.5t9.5 -20t8.5 -19t6 -14.5l20 127h266l-91 -674q-8 -62 -7.5 -101.5t7.5 -57.5q7 -16 21 -20q13 -3 26 -3q45 0 92 38
q60 49 102.5 146.5t52.5 214.5q6 58 6 111q1 87 -15 162q-24 121 -90 211.5t-183.5 139t-281.5 48.5q-138 0 -252.5 -38.5t-196.5 -106t-141.5 -162t-93 -203t-46.5 -233.5q-10 -83 -10 -157q0 -87 14 -163q25 -140 99.5 -242t209.5 -155.5t326 -53.5q81 0 199 19t206 48
l38 -206q-281 -66 -474 -66z" />
    <glyph glyph-name="A" unicode="A" horiz-adv-x="1127" 
d="M478 571h177l-89 642zM43 0l314 1658h414l312 -1658h-338l-57 352h-242l-56 -352h-347z" />
    <glyph glyph-name="B" unicode="B" horiz-adv-x="1204" 
d="M488 995h70q118 0 160.5 53t42.5 168q0 196 -215 196h-58v-417zM488 256h77q119 0 167 58t48 183q0 140 -49 198t-171 58h-72v-497zM122 0v1658h432q93 0 165.5 -9.5t144 -37.5t118 -74.5t74.5 -126.5q26 -74 25 -172v-14q-4 -290 -243 -333q143 -19 218 -120t77 -279
v-11q-1 -243 -127 -361q-130 -120 -374 -120h-510z" />
    <glyph glyph-name="C" unicode="C" horiz-adv-x="1151" 
d="M597 -23q-139 0 -237 38.5t-154.5 113.5t-81.5 173t-25 230v591q0 135 25 234.5t81.5 174t154 112t237.5 37.5q134 0 228.5 -34t148 -100t77 -150t23.5 -195v-146h-358v167q0 39 -1 59t-7 51.5t-17.5 47.5t-35.5 28.5t-58 12.5t-58 -12.5t-36.5 -30t-20 -48t-9 -55.5
t-1.5 -62v-773q0 -100 26 -152.5t99 -52.5q33 0 56.5 12.5t35.5 29.5t18.5 48t7.5 54t1 61v174h358v-143q0 -89 -14 -161t-47.5 -135.5t-87 -106.5t-136.5 -67.5t-192 -24.5z" />
    <glyph glyph-name="D" unicode="D" horiz-adv-x="1196" 
d="M122 0v1658h417q163 0 270.5 -29t171.5 -95t90 -161.5t26 -239.5v-598q0 -145 -26.5 -242.5t-90 -165t-170 -97.5t-266.5 -30h-422zM488 254h56q42 0 71.5 5.5t49 19.5t31 29.5t17 45t7 56t1.5 71.5v713q0 63 -5 97t-23 62t-53.5 38.5t-96.5 10.5h-55v-1148z" />
    <glyph glyph-name="E" unicode="E" 
d="M122 0v1658h745v-250h-379v-410h289v-255h-289v-495h383v-248h-749z" />
    <glyph glyph-name="F" unicode="F" horiz-adv-x="887" 
d="M122 0v1658h718v-249h-352v-417h303v-256h-303v-736h-366z" />
    <glyph glyph-name="G" unicode="G" horiz-adv-x="1190" 
d="M555 -24q-126 0 -215.5 40.5t-141.5 118.5t-75.5 180t-23.5 236v551q0 110 15.5 197t51 160t92.5 121t142 74.5t197 26.5q108 0 191 -23t138.5 -64t90.5 -102.5t50 -134t15 -162.5v-105h-358v133q0 38 -1.5 62t-8 53t-19 45t-36 27.5t-57.5 11.5q-35 0 -59.5 -13
t-37.5 -31.5t-20.5 -49.5t-9 -56.5t-1.5 -62.5v-759q0 -99 29.5 -156.5t107.5 -57.5q144 0 144 221v186h-150v219h481v-862h-243l-21 139q-73 -163 -267 -163z" />
    <glyph glyph-name="H" unicode="H" horiz-adv-x="1247" 
d="M129 0v1658h367v-670h255v670h367v-1658h-367v726h-255v-726h-367z" />
    <glyph glyph-name="I" unicode="I" horiz-adv-x="615" 
d="M125 0v1658h366v-1658h-366z" />
    <glyph glyph-name="J" unicode="J" horiz-adv-x="715" 
d="M26 -40v255h13q106 -1 145 31q42 34 42 137v1275h366v-1289q-2 -107 -20.5 -179.5t-62 -126t-118.5 -78.5t-187 -25h-178z" />
    <glyph glyph-name="K" unicode="K" horiz-adv-x="1160" 
d="M122 0v1658h366v-674l280 674h357l-307 -749l322 -909h-374l-242 741l-36 -57v-684h-366z" />
    <glyph glyph-name="L" unicode="L" horiz-adv-x="906" 
d="M122 0v1658h366v-1410h380v-248h-746z" />
    <glyph glyph-name="M" unicode="M" horiz-adv-x="1441" 
d="M117 0l27 1658h392l184 -970l198 970h379l27 -1658h-262l-27 1100l-195 -1100h-229l-204 1108l-25 -1108h-265z" />
    <glyph glyph-name="N" unicode="N" horiz-adv-x="1146" 
d="M122 0v1658h258l341 -796v796h304v-1658h-248l-342 858v-858h-313z" />
    <glyph glyph-name="O" unicode="O" horiz-adv-x="1198" 
d="M598 -23q-138 0 -235.5 36.5t-155 109t-83 170.5t-25.5 231v612q0 134 25.5 231.5t83 169.5t155 108t235.5 36q269 0 385.5 -137.5t116.5 -407.5v-612q0 -270 -116.5 -408.5t-385.5 -138.5zM598 236q33 0 57 11.5t37 29t20.5 45.5t9.5 52.5t2 58.5v795q0 33 -2 57.5
t-9.5 52t-20.5 44.5t-37 28.5t-57 11.5t-56.5 -11.5t-36.5 -28t-20 -45t-8.5 -51.5t-1.5 -58v-795q0 -35 1.5 -58.5t8.5 -52t20 -45.5t36.5 -29t56.5 -12z" />
    <glyph glyph-name="P" unicode="P" horiz-adv-x="1162" 
d="M488 961h117q99 0 131.5 50.5t32.5 171.5q0 43 -2.5 72t-12 59t-27 47.5t-48.5 28.5t-75 11h-116v-440zM122 0v1658h553q220 0 329 -123t109 -358q0 -93 -16.5 -167t-48.5 -125t-74 -86.5t-98 -55.5t-114.5 -28.5t-129.5 -8.5h-144v-706h-366z" />
    <glyph glyph-name="Q" unicode="Q" horiz-adv-x="1198" 
d="M598 236q33 0 57 11.5t37 29t20.5 45.5t9.5 52.5t2 58.5v795q0 33 -2 57.5t-9.5 52t-20.5 44.5t-37 28.5t-57 11.5t-56.5 -11.5t-36.5 -28t-20 -45t-8.5 -51.5t-1.5 -58v-795q0 -35 1.5 -58.5t8.5 -52t20 -45.5t36.5 -29t56.5 -12zM971 -326q-74 31 -176 120t-163 183
h-34q-138 0 -235.5 36.5t-155 109t-83 170.5t-25.5 231v612q0 134 25.5 231.5t83 169.5t155 108t235.5 36q269 0 385.5 -137.5t116.5 -407.5v-612q0 -373 -219 -488q98 -107 166 -143z" />
    <glyph glyph-name="R" unicode="R" horiz-adv-x="1224" 
d="M488 953h94q112 0 158 58t46 175q0 115 -41.5 170.5t-143.5 55.5h-113v-459zM122 0v1658h452q105 0 186 -12t152 -42t117 -79t72 -126t26 -180q0 -163 -44 -262t-159 -154l228 -803h-379l-182 742h-103v-742h-366z" />
    <glyph glyph-name="S" unicode="S" horiz-adv-x="1052" 
d="M562 -23q-236 0 -351.5 125.5t-124.5 400.5l314 48q2 -156 37.5 -226.5t106.5 -70.5q93 0 93 120q0 67 -24 123.5t-59 96.5t-98 94l-147 127q-53 46 -88 84t-68.5 90.5t-49.5 116.5t-16 141q0 207 124 320t340 114q74 0 134.5 -16t102 -42t73 -65.5t50 -79t31 -89
t17 -90.5t6.5 -88l-317 -41q-1 42 -2.5 69.5t-5.5 58.5t-11 50t-18.5 35.5t-29 23.5t-41.5 6q-48 -1 -73.5 -40.5t-25.5 -88.5q0 -47 11.5 -85.5t40 -74.5t46.5 -54t60 -56l141 -124q58 -52 100 -99.5t80 -108t57.5 -133t19.5 -155.5q0 -180 -120 -298.5t-315 -118.5z" />
    <glyph glyph-name="T" unicode="T" horiz-adv-x="914" 
d="M275 0v1387h-255v271h874v-271h-252v-1387h-367z" />
    <glyph glyph-name="U" unicode="U" horiz-adv-x="1202" 
d="M601 -23q-113 0 -197.5 23.5t-140 66.5t-90 111.5t-48.5 151t-14 192.5v1136h362v-1190q0 -39 2 -66.5t9.5 -59.5t20.5 -52.5t37.5 -34t58.5 -13.5t58 13.5t37 34t20.5 52.5t9.5 60t2 66v1190h363v-1136q0 -138 -23.5 -235t-78.5 -169t-151 -106.5t-237 -34.5z" />
    <glyph glyph-name="V" unicode="V" horiz-adv-x="1078" 
d="M346 0l-300 1658h313l178 -1118l165 1118h333l-304 -1658h-385z" />
    <glyph glyph-name="W" unicode="W" horiz-adv-x="1432" 
d="M257 0l-200 1658h311l98 -963l127 963h242l133 -958l100 958h307l-201 -1658h-318l-141 1000l-136 -1000h-322z" />
    <glyph glyph-name="X" unicode="X" horiz-adv-x="1055" 
d="M14 0l323 894l-309 764h347l181 -448l146 448h308l-291 -859l322 -799h-343l-201 494l-179 -494h-304z" />
    <glyph glyph-name="Y" unicode="Y" horiz-adv-x="1011" 
d="M332 0v678l-316 980h345l158 -525l143 525h333l-312 -980v-678h-351z" />
    <glyph glyph-name="Z" unicode="Z" horiz-adv-x="885" 
d="M62 0v222l402 1187h-386v249h749v-203l-413 -1207h416v-248h-768z" />
    <glyph glyph-name="bracketleft" unicode="[" horiz-adv-x="685" 
d="M106 -381l1 2039h517v-130h-255l-1 -1779h254v-130h-516z" />
    <glyph glyph-name="backslash" unicode="\" horiz-adv-x="865" 
d="M593 0l-505 1658h183l505 -1658h-183z" />
    <glyph glyph-name="bracketright" unicode="]" horiz-adv-x="666" 
d="M43 -381v129h255l-2 1780h-254v130h516l2 -2039h-517z" />
    <glyph glyph-name="asciicircum" unicode="^" horiz-adv-x="978" 
d="M62 971l293 687h267l294 -687h-284l-144 402l-143 -402h-283z" />
    <glyph glyph-name="underscore" unicode="_" horiz-adv-x="753" 
d="M0 -342v225h753v-225h-753z" />
    <glyph glyph-name="grave" unicode="`" horiz-adv-x="633" 
d="M343 1246l-259 412h343l124 -412h-208z" />
    <glyph glyph-name="a" unicode="a" horiz-adv-x="976" 
d="M469 209q24 0 49.5 16.5t41.5 39.5v324q-80 -40 -131.5 -112.5t-51.5 -141.5q0 -58 26 -92t66 -34zM348 -21q-126 2 -200.5 89.5t-74.5 199.5q0 58 14.5 108.5t35 87.5t57.5 72t67 56.5t79.5 46t79.5 36.5t81.5 31.5t72.5 28.5v117q0 50 -15 77t-55 27q-68 0 -72 -94
l-8 -87l-312 12q0 3 1 20t1 19q15 194 120.5 286t301.5 92q175 0 266.5 -97t91.5 -259v-551q0 -114 21 -297h-297q-26 144 -28 168q-24 -81 -82 -135t-146 -54z" />
    <glyph glyph-name="b" unicode="b" horiz-adv-x="1036" 
d="M532 197h2q42 1 62 37q20 38 19 97v548q0 55 -21 90q-19 32 -58 32h-7q-41 -3 -90 -39v-736q49 -29 93 -29zM690 -21q-125 0 -251 110v-89h-334v1658h334v-561q120 107 247 107h11q128 -4 190.5 -102t62.5 -248v-505q0 -169 -67.5 -269.5t-192.5 -100.5z" />
    <glyph glyph-name="c" unicode="c" horiz-adv-x="959" 
d="M490 -21q-195 0 -302 105.5t-107 294.5v428q0 188 107 292.5t302 104.5q192 0 295.5 -89.5t103.5 -266.5v-125h-322v134q0 68 -18.5 93t-57.5 25t-57 -31t-18 -107v-491q0 -77 18.5 -106t56.5 -29q39 0 57.5 26.5t18.5 88.5v156h322v-143q0 -176 -104.5 -268t-294.5 -92z
" />
    <glyph glyph-name="d" unicode="d" horiz-adv-x="1031" 
d="M506 194q35 0 87 29v745q-44 26 -85 26q-44 0 -65 -35.5t-21 -92.5v-540q0 -58 20 -95t64 -37zM362 -21q-134 0 -204.5 93t-70.5 276v481q0 169 70.5 272t204.5 103q123 0 231 -93v547h334v-1658h-334v90q-113 -110 -231 -111z" />
    <glyph glyph-name="e" unicode="e" horiz-adv-x="962" 
d="M412 727h163v118q0 66 -22 93.5t-63 27.5q-39 0 -58.5 -32t-19.5 -109v-98zM491 -21q-196 0 -303 105t-107 296v424q0 191 107.5 295.5t302.5 104.5q197 0 295.5 -101.5t98.5 -298.5v-233h-473v-208q0 -72 18 -108.5t61 -36.5q84 0 84 115v79h310v-69
q0 -177 -103.5 -270.5t-290.5 -93.5z" />
    <glyph glyph-name="f" unicode="f" horiz-adv-x="656" 
d="M148 0v957h-113v227h113v83q0 58 4 99.5t16 84.5t34.5 71t58 50.5t88.5 33.5t124 11q72 0 159 -10v-248q-57 9 -70 9q-80 0 -80 -91v-93h150v-227h-150v-957h-334z" />
    <glyph glyph-name="g" unicode="g" horiz-adv-x="1022" 
d="M506 566q57 0 74 47.5t17 170.5q0 129 -15.5 174.5t-76.5 45.5q-21 0 -36 -5.5t-25 -20.5t-15.5 -29.5t-8 -44.5t-3 -53t-0.5 -67q0 -59 3 -94.5t11.5 -66t27 -44t47.5 -13.5zM549 -146q82 0 120 17t42 57q1 10 1 20q0 38 -22 56q-28 24 -102 31l-179 22
q-47 -69 -47 -117q0 -45 41.5 -65.5t145.5 -20.5zM550 -355q-48 0 -87.5 1.5t-93 6.5t-95.5 14t-85.5 26t-72 40.5t-47 58.5t-18.5 78q0 118 169 235q-74 27 -108 59t-40 74q-3 16 -3 32q0 48 28 87q37 52 119 117q-129 94 -129 294q0 221 107.5 328.5t304.5 107.5
q189 0 270 -103q75 88 160 132l44 22l77 -163q-30 -9 -95 -38t-103 -52q59 -90 59 -232q0 -191 -96.5 -297.5t-292.5 -106.5q-47 0 -101.5 10.5t-87.5 24.5q-36 -47 -36 -74q0 -4 1 -8q4 -30 109 -45q28 -5 127 -17.5t130 -16.5q171 -23 240.5 -90.5t69.5 -194.5
q0 -72 -21 -126.5t-69 -97t-132 -64.5t-202 -22z" />
    <glyph glyph-name="h" unicode="h" horiz-adv-x="1043" 
d="M106 0v1658h334v-580q126 126 289 126q105 0 161 -77t56 -198v-929h-334v879q0 45 -14 66.5t-52 20.5q-44 0 -106 -43v-923h-334z" />
    <glyph glyph-name="i" unicode="i" horiz-adv-x="545" 
d="M105 1383v235h336v-235h-336zM107 0v1184h334v-1184h-334z" />
    <glyph glyph-name="j" unicode="j" horiz-adv-x="565" 
d="M129 1383v235h336v-235h-336zM-19 -339v239q48 -8 59 -8q91 0 91 100v1192h334v-1232q0 -144 -79.5 -231t-227.5 -87q-86 0 -177 27z" />
    <glyph glyph-name="k" unicode="k" horiz-adv-x="1104" 
d="M105 1v1658h331v-919l287 444h375l-312 -485l309 -699h-365l-206 562l-88 -111v-450h-331z" />
    <glyph glyph-name="l" unicode="l" horiz-adv-x="561" 
d="M118 0v1658h334v-1658h-334z" />
    <glyph glyph-name="m" unicode="m" horiz-adv-x="1542" 
d="M104 0v1184h327v-96q119 118 282 118q70 0 122.5 -36t79.5 -104q125 140 303 140q104 0 166 -76t62 -210v-920h-328v886q0 49 -17 71t-53 20q-54 -2 -109 -43v-14v-920h-325v886q0 48 -17.5 70.5t-53.5 20.5q-50 -2 -112 -45v-932h-327z" />
    <glyph glyph-name="n" unicode="n" horiz-adv-x="1039" 
d="M104 0v1184h334v-118q141 138 287 138q105 0 161 -77t56 -198v-929h-334v879q0 45 -14 66.5t-52 20.5q-42 0 -104 -41v-925h-334z" />
    <glyph glyph-name="o" unicode="o" horiz-adv-x="989" 
d="M493 -21q-194 0 -303 100t-109 289v447q0 190 109 289.5t303 99.5t304.5 -100t110.5 -289v-447q0 -189 -110.5 -289t-304.5 -100zM493 203q48 0 66.5 35.5t18.5 106.5v493q0 72 -18.5 107.5t-66.5 35.5q-46 0 -64.5 -36.5t-18.5 -106.5v-493q0 -69 18.5 -105.5
t64.5 -36.5z" />
    <glyph glyph-name="p" unicode="p" horiz-adv-x="1034" 
d="M528 197h2q42 1 62 37q20 38 21 97v548q0 54 -22 90q-20 32 -57 32h-9q-38 -3 -87 -39v-736q48 -29 90 -29zM104 -390v1574h334v-87q122 107 246 107h11q128 -4 190.5 -102t62.5 -248v-505q0 -169 -67.5 -269.5t-192.5 -100.5q-124 0 -250 110v-479h-334z" />
    <glyph glyph-name="q" unicode="q" horiz-adv-x="1033" 
d="M507 194q37 0 90 33v739q-52 28 -88 28q-44 0 -66 -35.5t-22 -92.5v-540q0 -58 21 -95t65 -37zM597 -390v486q-116 -116 -236 -117q-134 0 -204.5 93t-70.5 276v481q0 169 70.5 272t204.5 103q124 0 236 -99v79h334v-1574h-334z" />
    <glyph glyph-name="r" unicode="r" horiz-adv-x="760" 
d="M108 0v1184h334v-197q109 212 237 212q18 0 47 -8v-296q-28 7 -55 7q-137 -7 -229 -143v-759h-334z" />
    <glyph glyph-name="s" unicode="s" horiz-adv-x="865" 
d="M451 -21q-151 0 -251 71.5t-161 226.5l231 101q34 -84 80 -130q41 -42 86 -42h10q31 2 52 24.5t20 55.5q-1 17 -12.5 36.5t-43.5 50t-44.5 41.5t-57.5 49l-92 79q-201 170 -201 332q-1 96 51 173q50 76 133 116.5t180 40.5q145 0 242.5 -79t137.5 -225l-216 -101
q-20 67 -58 118t-86 54h-3q-36 1 -56 -19q-22 -20 -23 -50q-4 -48 142 -170q12 -11 18 -16l89 -80q52 -45 78 -70.5t63 -70.5t53.5 -92t16.5 -101q0 -101 -54 -176t-138.5 -111t-185.5 -36z" />
    <glyph glyph-name="t" unicode="t" horiz-adv-x="724" 
d="M440 -14q-55 2 -99.5 15.5t-75.5 34.5t-54 53t-36.5 66t-21.5 79t-11 86.5t-3 93.5v552h-113v218h113v359h337v-359h170v-218h-170v-612q0 -93 107 -96q13 -1 29.5 0t27 2.5t21 3.5t11.5 2v-263q-107 -18 -198 -18q-17 0 -34 1z" />
    <glyph glyph-name="u" unicode="u" horiz-adv-x="1030" 
d="M311 -20q-105 0 -161 77t-56 198v929h334v-889q0 -44 15.5 -66.5t52.5 -21.5q40 1 95 36v941h334v-1184h-334v109q-137 -129 -280 -129z" />
    <glyph glyph-name="v" unicode="v" horiz-adv-x="863" 
d="M257 0l-236 1184h320l97 -758l90 758h319l-241 -1184h-349z" />
    <glyph glyph-name="w" unicode="w" horiz-adv-x="1225" 
d="M218 0l-175 1184h279l85 -672l94 672h241l81 -687l99 687h259l-179 -1184h-285l-102 663l-113 -663h-284z" />
    <glyph glyph-name="x" unicode="x" horiz-adv-x="904" 
d="M20 0l252 649l-239 535h336l127 -285l111 285h259l-236 -585l268 -599h-337l-145 324l-117 -324h-279z" />
    <glyph glyph-name="y" unicode="y" 
d="M136 -343v231q110 0 152 22q38 20 38 79q0 7 -1 14q-6 51 -44 186q-11 47 -138 497.5t-138 497.5h315l147 -683l112 683h315l-279 -1248q-62 -279 -423 -279h-10h-46z" />
    <glyph glyph-name="z" unicode="z" horiz-adv-x="801" 
d="M71 0v216l326 724h-301v244h647v-203l-325 -736h330v-245h-677z" />
    <glyph glyph-name="braceleft" unicode="{" horiz-adv-x="767" 
d="M703 -399q-82 0 -144.5 5t-112 18t-83.5 29.5t-58.5 45t-39 58.5t-22.5 77t-10.5 92.5t-2.5 112.5v169q0 62 -0.5 97.5t-2.5 74t-5.5 57.5t-10.5 39t-15.5 27.5t-24 14.5t-32 8.5t-42.5 1.5v239q26 0 42.5 1.5t32 8.5t24 14.5t15.5 27.5t10.5 39t5.5 57.5t2.5 74
t0.5 97.5v169q0 67 2.5 112.5t10.5 92.5t22.5 77t39 58.5t58.5 45t83.5 29.5t112 18t144.5 5v-224q-57 0 -86.5 -6.5t-48 -33.5t-23.5 -69t-5 -123v-190q0 -185 -38.5 -281t-138.5 -119q100 -24 138.5 -120t38.5 -281v-190q0 -81 5 -123t23.5 -69t48 -33.5t86.5 -6.5v-224z
" />
    <glyph glyph-name="bar" unicode="|" horiz-adv-x="538" 
d="M131 -366l1 2024h275v-2024h-276z" />
    <glyph glyph-name="braceright" unicode="}" horiz-adv-x="780" 
d="M77 -399v224q58 0 87 6.5t48 33.5t23.5 68.5t4.5 123.5v190q0 185 38.5 281t139.5 120q-101 23 -139.5 119t-38.5 281v190q0 82 -4.5 123.5t-23.5 68.5t-48 33.5t-87 6.5v224q82 0 145 -5t112 -18t83.5 -29.5t59 -45t39 -58.5t22.5 -77t10.5 -92.5t2.5 -112.5v-169
q0 -62 0.5 -97.5t2.5 -74t5 -57.5t10.5 -39t16 -27.5t24 -14.5t32 -8.5t41.5 -1.5v-239q-25 0 -41.5 -1.5t-32 -8.5t-24 -14.5t-16 -27.5t-10.5 -39t-5 -57.5t-2.5 -74t-0.5 -97.5v-169q0 -67 -2.5 -112.5t-10.5 -92.5t-22.5 -77t-39 -58.5t-59 -45t-83.5 -29.5t-112 -18
t-145 -5z" />
    <glyph glyph-name="asciitilde" unicode="~" horiz-adv-x="989" 
d="M672 682q-39 0 -92 19t-95 41.5t-86.5 41.5t-70.5 19t-67.5 -27t-73.5 -71l-105 139q43 73 112 132.5t130 59.5q50 0 119 -30t130 -59.5t91 -29.5q52 0 139 97l116 -120q-36 -81 -108 -146.5t-139 -65.5z" />
    <glyph glyph-name="uni00A0" unicode="&#xa0;" horiz-adv-x="526" 
 />
    <glyph glyph-name="exclamdown" unicode="&#xa1;" horiz-adv-x="485" 
d="M97 1025v311h316v-311h-316zM75 -318l120 1233h116l96 -1233h-332z" />
    <glyph glyph-name="cent" unicode="&#xa2;" horiz-adv-x="932" 
d="M433 -264v246q-170 14 -263.5 118t-93.5 279v428q0 175 93.5 278t263.5 117v243h85v-242q178 -7 272 -96t94 -259v-125h-322v126q0 68 -18.5 93.5t-57.5 25.5t-56.5 -31t-17.5 -108v-476q0 -76 18.5 -105.5t56.5 -29.5q39 0 57 26.5t18 88.5v149h322v-143
q0 -169 -95 -260t-271 -99v-244h-85z" />
    <glyph glyph-name="sterling" unicode="&#xa3;" horiz-adv-x="1001" 
d="M41 0v188l122 57v411h-122v261h122v184q0 76 3 133.5t13 121t27.5 109t47.5 88.5t72 69.5t102 42.5t136 16q90 0 157 -22.5t108 -60.5t66.5 -96.5t35 -122.5t9.5 -146v-50h-292q0 55 -2 86t-9.5 66.5t-25 51t-45.5 15.5q-19 0 -32.5 -7.5t-22.5 -26t-14 -37.5t-7.5 -54.5
t-3.5 -63t-1 -76.5v-222h242v-259h-242v-374h445v-282h-889z" />
    <glyph glyph-name="currency" unicode="&#xa4;" horiz-adv-x="1138" 
d="M569 521q141 0 238 101t97 244t-96.5 244t-238.5 101q-141 0 -237.5 -101t-96.5 -244t96.5 -244t237.5 -101zM114 381l-30 30l163 162q-111 124 -111 293t111 293l-163 162l30 30l162 -162q122 115 290 115h2.5h3.5q168 0 290 -115l162 162l30 -30l-162 -162
q110 -125 110 -293q0 -169 -111 -293l163 -162l-30 -30l-162 162q-122 -115 -290 -115h-2.5h-3.5q-168 0 -290 115z" />
    <glyph glyph-name="yen" unicode="&#xa5;" horiz-adv-x="975" 
d="M318 0v244h-169v167h169v134h-169v172h128l-274 941h344l159 -633l142 633h334l-271 -941h129v-172h-170v-134h170v-167h-170v-244h-352z" />
    <glyph glyph-name="brokenbar" unicode="&#xa6;" horiz-adv-x="445" 
d="M106 824v834h233v-834h-233zM106 -366v834h233v-834h-233z" />
    <glyph glyph-name="section" unicode="&#xa7;" horiz-adv-x="969" 
d="M525 741q79 44 79 96q0 53 -62 90l-96 58q-40 -12 -64 -38.5t-24 -60.5q0 -21 10.5 -42t29.5 -32zM478 -14q-154 0 -248.5 92t-132.5 244l223 59q23 -62 65.5 -111t98.5 -49q52 0 82.5 25.5t32.5 69.5q1 54 -34 95t-122 94l-182 112q-162 97 -162 248q0 9 1 18
q6 87 55.5 150t120.5 87q-71 38 -127 110.5t-60 152.5q-1 10 -1 20q0 89 48 159q53 76 143 114t200 38q156 0 255.5 -93.5t136.5 -247.5l-218 -54q-22 74 -60 120q-37 45 -101 45h-3q-49 -2 -77.5 -25.5t-28.5 -69.5q0 -15 4 -28.5t9 -24t16 -22.5t17.5 -18.5t22 -17t20 -14
t21.5 -13t18 -10.5l160 -98q185 -114 185 -283q0 -82 -41.5 -138.5t-120.5 -107.5q87 -71 129.5 -137t42.5 -152q0 -153 -103.5 -246t-284.5 -93z" />
    <glyph glyph-name="dieresis" unicode="&#xa8;" horiz-adv-x="870" 
d="M521 1355v303h269v-303h-269zM80 1355v303h269v-303h-269z" />
    <glyph glyph-name="copyright" unicode="&#xa9;" horiz-adv-x="1807" 
d="M905 -26q-169 0 -308 50t-232 133t-157 195t-92.5 232.5t-28.5 247.5q0 128 28.5 248.5t92.5 232.5t157 195t232 133t308 50q168 0 306.5 -50t231 -133t156.5 -195t92.5 -232.5t28.5 -248.5t-28.5 -248.5t-92 -232t-156 -195t-231 -133t-307.5 -49.5zM908 57
q145 0 266 43t204 117t140 173.5t83.5 210t26.5 230.5t-26.5 230.5t-83.5 209.5t-140 172t-203.5 115.5t-266.5 42.5t-267.5 -42.5t-204.5 -115.5t-140 -172t-83.5 -209.5t-26.5 -230.5t26.5 -230.5t83.5 -210t140 -173.5t204.5 -117t267.5 -43zM904 253
q-212 0 -327.5 102.5t-115.5 287.5v392q0 184 115.5 286t327.5 102q208 0 320 -87t112 -260v-114h-347v115q0 67 -21 92.5t-63 25.5q-43 0 -63.5 -31t-20.5 -107v-440q0 -76 21 -105t63 -29q43 0 63.5 26.5t20.5 87.5v132h347v-126q0 -172 -113 -261t-319 -89z" />
    <glyph glyph-name="ordfeminine" unicode="&#xaa;" horiz-adv-x="990" 
d="M483 838q52 0 86 52v260q-73 -34 -120 -95t-47 -117q0 -46 23 -73t58 -27zM373 640q-118 2 -187 74.5t-69 169.5q0 48 13.5 90t33.5 73t54 59.5t63.5 46t74 37t73.5 29.5t75 25t65 22v111q0 88 -60 88q-37 0 -51 -33t-21 -118l-288 8q1 181 102 271t284 90q166 0 249 -89
t83 -240v-697h-263l-18 137q-26 -68 -81 -111t-132 -43z" />
    <glyph glyph-name="guillemotleft" unicode="&#xab;" horiz-adv-x="1000" 
d="M920 70l-401 481v117l401 481v-324l-204 -216l204 -215v-324zM474 70l-400 481v117l400 481v-324l-203 -216l203 -215v-324z" />
    <glyph glyph-name="logicalnot" unicode="&#xac;" horiz-adv-x="1017" 
d="M757 421v320h-662v225h826v-545h-164z" />
    <glyph glyph-name="uni00AD" unicode="&#xad;" horiz-adv-x="761" 
d="M132 557v215h512v-215h-512z" />
    <glyph glyph-name="registered" unicode="&#xae;" horiz-adv-x="1824" 
d="M913 -28q-168 0 -306.5 50t-231.5 133t-156.5 194.5t-92 231.5t-28.5 247q0 128 28.5 248t92 231.5t156.5 194.5t231.5 132.5t306.5 49.5t306 -49.5t230.5 -132.5t156 -194.5t92 -231.5t28.5 -248t-28 -248t-91.5 -231.5t-156 -194.5t-231 -132.5t-306.5 -49.5zM912 81
q139 0 254.5 42t194.5 113t134 167t80 203t25 221q0 115 -25 221.5t-80 202t-134 166.5t-194.5 112.5t-254.5 41.5q-140 0 -256.5 -41.5t-195.5 -112t-134 -166.5t-80 -202.5t-25 -221.5q0 -114 25 -220.5t80 -203t134 -167.5t195.5 -113t256.5 -42zM837 892h41
q83 0 117 39.5t34 115.5q0 143 -128 143h-64v-298zM567 315v1034h340q188 0 282 -63.5t94 -219.5q0 -100 -33 -159.5t-115 -98.5l180 -493h-284l-139 440h-55v-440h-270z" />
    <glyph glyph-name="macron" unicode="&#xaf;" horiz-adv-x="366" 
d="M-67 1501v157h516v-157h-516z" />
    <glyph glyph-name="degree" unicode="&#xb0;" horiz-adv-x="1105" 
d="M551 868q-186 0 -298.5 111.5t-112.5 295.5q0 185 112.5 295t298.5 110q187 0 301 -110.5t114 -294.5t-113 -295.5t-302 -111.5zM551 1050q95 0 148.5 62.5t53.5 162.5t-53 161t-149 61q-94 0 -147 -61t-53 -161t53 -162.5t147 -62.5z" />
    <glyph glyph-name="plusminus" unicode="&#xb1;" horiz-adv-x="984" 
d="M132 0v203h720v-203h-720zM387 377v264h-255v197h255v263h211v-263h254v-197h-254v-264h-211z" />
    <glyph glyph-name="uni00B2" unicode="&#xb2;" horiz-adv-x="885" 
d="M143 621v192l282 435q8 12 41 61t46 71.5t27.5 64t14.5 78.5q0 55 -25 83q-20 22 -51 22q-8 0 -16 -1q-77 -11 -77 -223h-243v62q0 170 80 271t247 101q155 0 241 -84t86 -234q0 -37 -7.5 -74.5t-16 -63t-29.5 -65t-31 -56.5t-39 -61.5t-37 -56.5l-208 -324h336v-198
h-621z" />
    <glyph glyph-name="uni00B3" unicode="&#xb3;" horiz-adv-x="885" 
d="M467 602q-96 0 -162.5 27t-104 79.5t-54 120t-16.5 159.5v53h253v-58q0 -91 19.5 -129t65.5 -38q45 0 63 35t18 111q0 93 -27 138t-97 45h-61v165h56q73 0 101 46.5t28 140.5q0 139 -86 139q-80 0 -80 -139v-85h-253v89q0 160 88 248.5t243 88.5q160 0 247.5 -83.5
t87.5 -245.5q0 -100 -42.5 -174t-100.5 -89q143 -56 143 -271q0 -174 -79.5 -273.5t-249.5 -99.5z" />
    <glyph glyph-name="acute" unicode="&#xb4;" horiz-adv-x="633" 
d="M111 1246l125 412h342l-259 -412h-208z" />
    <glyph glyph-name="mu" unicode="&#xb5;" horiz-adv-x="1006" 
d="M86 -382l-1 1566h334v-879q0 -45 14 -66.5t52 -20.5q39 0 95 35v931h334v-1184h-334v95q-65 -62 -135 -88q-14 -6 -25 -9v-380h-334z" />
    <glyph glyph-name="paragraph" unicode="&#xb6;" horiz-adv-x="1067" 
d="M386 -196v1200q-142 3 -228 88.5t-86 236.5q0 74 21.5 131.5t57.5 94t87.5 60.5t108 33.5t123.5 9.5h458v-1854h-183v1666h-165v-1666h-194z" />
    <glyph glyph-name="periodcentered" unicode="&#xb7;" horiz-adv-x="457" 
d="M72 616v309h315v-309h-315z" />
    <glyph glyph-name="cedilla" unicode="&#xb8;" horiz-adv-x="567" 
d="M108 -544v145q41 -12 96 -16q12 -1 24 -1q40 0 78 11q48 14 48 49q0 39 -32.5 66.5t-71.5 38.5t-85 14v237h124v-135q118 -5 199 -61q82 -57 82 -149q0 -75 -42 -127q-43 -54 -112 -76q-66 -21 -142 -20h-8q-80 1 -158 24z" />
    <glyph glyph-name="uni00B9" unicode="&#xb9;" horiz-adv-x="878" 
d="M366 621v926l-204 -50v187q3 1 32 11t47 17t49.5 20.5t53 25t43.5 27.5t34 31h195v-1195h-250z" />
    <glyph glyph-name="ordmasculine" unicode="&#xba;" horiz-adv-x="990" 
d="M493 842q45 0 64 32t19 96v383q0 63 -19 95t-64 32q-81 0 -81 -127v-383q0 -128 81 -128zM494 639q-165 0 -259 84t-94 243v391q0 159 94 242.5t259 83.5q162 0 258.5 -84.5t96.5 -241.5v-391q0 -157 -96.5 -242t-258.5 -85z" />
    <glyph glyph-name="guillemotright" unicode="&#xbb;" horiz-adv-x="1016" 
d="M538 70v324l209 216l-209 215v324l406 -481v-117zM92 70v324l210 216l-210 215v324l407 -481v-117z" />
    <glyph glyph-name="onequarter" unicode="&#xbc;" horiz-adv-x="1407" 
d="M878 381h149v263zM218 0l765 1658h168l-766 -1658h-167zM226 828v565l-121 -56v154q134 71 210 167h109v-830h-198zM1027 1v228h-273v145l290 485h153v-478h107v-152h-107v-228h-170z" />
    <glyph glyph-name="onehalf" unicode="&#xbd;" horiz-adv-x="1407" 
d="M173 0l765 1658h168l-766 -1658h-167zM174 828v565l-122 -56v154q132 69 211 167h109v-830h-198zM839 1v148l191 273q4 6 18 26t19 27.5t16.5 26t16.5 28t13 26t11.5 29t6.5 27.5t3 29q0 84 -66 84q-40 1 -58 -45q-11 -29 -12 -65q0 -21 4 -44h-177q-5 48 -5 69
q1 106 64.5 170t179.5 64q117 0 184 -60.5t67 -169.5q0 -54 -21.5 -111.5t-45.5 -96.5t-74 -109q-5 -6 -35.5 -47.5t-62 -84.5t-33.5 -46h256v-148h-460z" />
    <glyph glyph-name="threequarters" unicode="&#xbe;" horiz-adv-x="1407" 
d="M900 381h149v263zM235 0l765 1658h168l-766 -1658h-167zM1049 1v228h-273v145l290 485h153v-478h107v-152h-107v-228h-170zM321 889q-105 0 -164 61.5t-59 167.5h150q0 -43 17 -67t49 -24q55 0 55 90q0 58 -27 77t-99 19v121q71 0 99.5 20t28.5 76q0 47 -12.5 71.5
t-45.5 24.5q-37 0 -51 -23.5t-14 -67.5h-150q0 116 59 172.5t168 56.5q203 0 203 -219q0 -67 -38 -111t-90 -50q132 -21 132 -165q0 -111 -54 -170.5t-157 -59.5z" />
    <glyph glyph-name="questiondown" unicode="&#xbf;" horiz-adv-x="1067" 
d="M444 999v317h326v-317h-326zM557 -369q-219 0 -336 110t-117 310q0 179 101.5 352t251.5 278v199h304v-264q-150 -124 -243 -274q-84 -135 -84 -274q0 -15 1 -30q3 -64 35 -92t80 -28q44 0 71 32q24 29 24 74v10q0 40 -21 106l302 68q30 -120 30 -174q1 -18 1 -34
q1 -66 -15 -124q-20 -72 -66 -127.5t-127.5 -86.5t-191.5 -31z" />
    <glyph glyph-name="Agrave" unicode="&#xc0;" horiz-adv-x="1127" 
d="M459 1803l-259 412h343l124 -412h-208zM478 571h177l-89 642zM43 0l314 1658h414l312 -1658h-338l-57 352h-242l-56 -352h-347z" />
    <glyph glyph-name="Aacute" unicode="&#xc1;" horiz-adv-x="1127" 
d="M459 1803l126 412h342l-259 -412h-209zM478 571h177l-89 642zM43 0l314 1658h414l312 -1658h-338l-57 352h-242l-56 -352h-347z" />
    <glyph glyph-name="Acircumflex" unicode="&#xc2;" horiz-adv-x="1127" 
d="M230 1803l193 391h275l199 -391h-245l-89 242l-89 -242h-244zM478 571h177l-89 642zM43 0l314 1658h414l312 -1658h-338l-57 352h-242l-56 -352h-347z" />
    <glyph glyph-name="Atilde" unicode="&#xc3;" horiz-adv-x="1127" 
d="M751 1803h-10q-39 0 -91 21q-59 24 -113 50t-82 26q-57 0 -57 -84h-160v13q0 82 12 136q13 58 52 97t106 44q8 1 17 1q44 0 92 -18q56 -21 101.5 -45.5t63.5 -26.5q6 -1 11 -1q47 0 47 77h148q0 -58 -4.5 -103t-18 -89t-42.5 -69.5t-72 -28.5zM478 571h177l-89 642zM43 0
l314 1658h414l312 -1658h-338l-57 352h-242l-56 -352h-347z" />
    <glyph glyph-name="Adieresis" unicode="&#xc4;" horiz-adv-x="1127" 
d="M649 1803v303h269v-303h-269zM208 1803v303h269v-303h-269zM478 571h177l-89 642zM43 0l314 1658h414l312 -1658h-338l-57 352h-242l-56 -352h-347z" />
    <glyph glyph-name="Aring" unicode="&#xc5;" horiz-adv-x="1127" 
d="M562 1785q48 0 75 31t27 78q0 46 -27 77t-75 31t-75 -31t-27 -77q0 -47 27 -78t75 -31zM562 1666q-103 0 -171 60t-68 168q0 107 68 166.5t171 59.5q104 0 173 -60t69 -166q0 -108 -69 -168t-173 -60zM478 571h177l-89 642zM43 0l314 1658h414l312 -1658h-338l-57 352
h-242l-56 -352h-347z" />
    <glyph glyph-name="AE" unicode="&#xc6;" horiz-adv-x="1450" 
d="M552 578h190v510zM-32 0l723 1635h715v-249h-349v-402h247v-255h-247v-481h349v-248h-664v347h-266l-142 -347h-366z" />
    <glyph glyph-name="Ccedilla" unicode="&#xc7;" horiz-adv-x="1151" 
d="M473 -544v145q41 -12 96 -16q12 -1 24 -1q40 0 78 11q48 14 48 49q0 39 -32.5 66.5t-71.5 38.5t-85 14v237h124v-135q118 -5 199 -61q82 -57 82 -149q0 -75 -42 -127q-43 -54 -112 -76q-66 -21 -142 -20h-8q-80 1 -158 24zM597 -23q-139 0 -237 38.5t-154.5 113.5
t-81.5 173t-25 230v591q0 135 25 234.5t81.5 174t154 112t237.5 37.5q134 0 228.5 -34t148 -100t77 -150t23.5 -195v-146h-358v167q0 39 -1 59t-7 51.5t-17.5 47.5t-35.5 28.5t-58 12.5t-58 -12.5t-36.5 -30t-20 -48t-9 -55.5t-1.5 -62v-773q0 -100 26 -152.5t99 -52.5
q33 0 56.5 12.5t35.5 29.5t18.5 48t7.5 54t1 61v174h358v-143q0 -89 -14 -161t-47.5 -135.5t-87 -106.5t-136.5 -67.5t-192 -24.5z" />
    <glyph glyph-name="Egrave" unicode="&#xc8;" 
d="M392 1803l-259 412h343l124 -412h-208zM122 0v1658h745v-250h-379v-410h289v-255h-289v-495h383v-248h-749z" />
    <glyph glyph-name="Eacute" unicode="&#xc9;" 
d="M392 1803l126 412h342l-259 -412h-209zM122 0v1658h745v-250h-379v-410h289v-255h-289v-495h383v-248h-749z" />
    <glyph glyph-name="Ecircumflex" unicode="&#xca;" 
d="M163 1803l193 391h275l199 -391h-245l-89 242l-89 -242h-244zM122 0v1658h745v-250h-379v-410h289v-255h-289v-495h383v-248h-749z" />
    <glyph glyph-name="Edieresis" unicode="&#xcb;" 
d="M583 1803v303h269v-303h-269zM142 1803v303h269v-303h-269zM122 0v1658h745v-250h-379v-410h289v-255h-289v-495h383v-248h-749z" />
    <glyph glyph-name="Igrave" unicode="&#xcc;" horiz-adv-x="615" 
d="M204 1803l-259 412h343l124 -412h-208zM125 0v1658h366v-1658h-366z" />
    <glyph glyph-name="Iacute" unicode="&#xcd;" horiz-adv-x="615" 
d="M203 1803l126 412h342l-259 -412h-209zM125 0v1658h366v-1658h-366z" />
    <glyph glyph-name="Icircumflex" unicode="&#xce;" horiz-adv-x="615" 
d="M-26 1803l193 391h275l199 -391h-245l-89 242l-89 -242h-244zM125 0v1658h366v-1658h-366z" />
    <glyph glyph-name="Idieresis" unicode="&#xcf;" horiz-adv-x="615" 
d="M394 1803v303h269v-303h-269zM-47 1803v303h269v-303h-269zM125 0v1658h366v-1658h-366z" />
    <glyph glyph-name="Eth" unicode="&#xd0;" horiz-adv-x="1146" 
d="M106 0v758h-90v183h90v717h417q163 0 270.5 -29t171.5 -95t90 -161.5t26 -239.5v-598q0 -145 -26 -242.5t-90 -165t-170 -97.5t-267 -30h-422zM472 254h56q42 0 71.5 5.5t49 19.5t31 29.5t17 45t7 56t1.5 71.5v713q0 63 -5 97t-23 62t-53.5 38.5t-96.5 10.5h-55v-461h83
v-183h-83v-504z" />
    <glyph glyph-name="Ntilde" unicode="&#xd1;" horiz-adv-x="1146" 
d="M761 1803h-10q-39 0 -91 21q-59 24 -113 50t-82 26q-57 0 -57 -84h-160v13q0 82 12 136q13 58 52 97t106 44q8 1 17 1q44 0 92 -18q56 -21 101.5 -45.5t63.5 -26.5q6 -1 11 -1q47 0 47 77h148q0 -58 -4.5 -103t-18 -89t-42.5 -69.5t-72 -28.5zM122 0v1658h258l341 -796
v796h304v-1658h-248l-342 858v-858h-313z" />
    <glyph glyph-name="Ograve" unicode="&#xd2;" horiz-adv-x="1198" 
d="M496 1803l-259 412h343l124 -412h-208zM598 -23q-138 0 -235.5 36.5t-155 109t-83 170.5t-25.5 231v612q0 134 25.5 231.5t83 169.5t155 108t235.5 36q269 0 385.5 -137.5t116.5 -407.5v-612q0 -270 -116.5 -408.5t-385.5 -138.5zM598 236q33 0 57 11.5t37 29t20.5 45.5
t9.5 52.5t2 58.5v795q0 33 -2 57.5t-9.5 52t-20.5 44.5t-37 28.5t-57 11.5t-56.5 -11.5t-36.5 -28t-20 -45t-8.5 -51.5t-1.5 -58v-795q0 -35 1.5 -58.5t8.5 -52t20 -45.5t36.5 -29t56.5 -12z" />
    <glyph glyph-name="Oacute" unicode="&#xd3;" horiz-adv-x="1198" 
d="M495 1803l126 412h342l-259 -412h-209zM598 -23q-138 0 -235.5 36.5t-155 109t-83 170.5t-25.5 231v612q0 134 25.5 231.5t83 169.5t155 108t235.5 36q269 0 385.5 -137.5t116.5 -407.5v-612q0 -270 -116.5 -408.5t-385.5 -138.5zM598 236q33 0 57 11.5t37 29t20.5 45.5
t9.5 52.5t2 58.5v795q0 33 -2 57.5t-9.5 52t-20.5 44.5t-37 28.5t-57 11.5t-56.5 -11.5t-36.5 -28t-20 -45t-8.5 -51.5t-1.5 -58v-795q0 -35 1.5 -58.5t8.5 -52t20 -45.5t36.5 -29t56.5 -12z" />
    <glyph glyph-name="Ocircumflex" unicode="&#xd4;" horiz-adv-x="1198" 
d="M266 1803l193 391h275l199 -391h-245l-89 242l-89 -242h-244zM598 -23q-138 0 -235.5 36.5t-155 109t-83 170.5t-25.5 231v612q0 134 25.5 231.5t83 169.5t155 108t235.5 36q269 0 385.5 -137.5t116.5 -407.5v-612q0 -270 -116.5 -408.5t-385.5 -138.5zM598 236
q33 0 57 11.5t37 29t20.5 45.5t9.5 52.5t2 58.5v795q0 33 -2 57.5t-9.5 52t-20.5 44.5t-37 28.5t-57 11.5t-56.5 -11.5t-36.5 -28t-20 -45t-8.5 -51.5t-1.5 -58v-795q0 -35 1.5 -58.5t8.5 -52t20 -45.5t36.5 -29t56.5 -12z" />
    <glyph glyph-name="Otilde" unicode="&#xd5;" horiz-adv-x="1198" 
d="M787 1803h-10q-39 0 -91 21q-59 24 -113 50t-82 26q-57 0 -57 -84h-160v13q0 82 12 136q13 58 52 97t106 44q8 1 17 1q44 0 92 -18q56 -21 101.5 -45.5t63.5 -26.5q6 -1 11 -1q47 0 47 77h148q0 -58 -4.5 -103t-18 -89t-42.5 -69.5t-72 -28.5zM598 -23
q-138 0 -235.5 36.5t-155 109t-83 170.5t-25.5 231v612q0 134 25.5 231.5t83 169.5t155 108t235.5 36q269 0 385.5 -137.5t116.5 -407.5v-612q0 -270 -116.5 -408.5t-385.5 -138.5zM598 236q33 0 57 11.5t37 29t20.5 45.5t9.5 52.5t2 58.5v795q0 33 -2 57.5t-9.5 52
t-20.5 44.5t-37 28.5t-57 11.5t-56.5 -11.5t-36.5 -28t-20 -45t-8.5 -51.5t-1.5 -58v-795q0 -35 1.5 -58.5t8.5 -52t20 -45.5t36.5 -29t56.5 -12z" />
    <glyph glyph-name="Odieresis" unicode="&#xd6;" horiz-adv-x="1198" 
d="M685 1803v303h269v-303h-269zM244 1803v303h269v-303h-269zM598 -23q-138 0 -235.5 36.5t-155 109t-83 170.5t-25.5 231v612q0 134 25.5 231.5t83 169.5t155 108t235.5 36q269 0 385.5 -137.5t116.5 -407.5v-612q0 -270 -116.5 -408.5t-385.5 -138.5zM598 236
q33 0 57 11.5t37 29t20.5 45.5t9.5 52.5t2 58.5v795q0 33 -2 57.5t-9.5 52t-20.5 44.5t-37 28.5t-57 11.5t-56.5 -11.5t-36.5 -28t-20 -45t-8.5 -51.5t-1.5 -58v-795q0 -35 1.5 -58.5t8.5 -52t20 -45.5t36.5 -29t56.5 -12z" />
    <glyph glyph-name="multiply" unicode="&#xd7;" horiz-adv-x="993" 
d="M264 466l-153 152l234 234l-234 232l152 153l234 -233l233 233l152 -150l-234 -235l234 -234l-150 -152l-235 234z" />
    <glyph glyph-name="Oslash" unicode="&#xd8;" horiz-adv-x="1170" 
d="M475 675l241 650q-7 29 -19.5 50t-37.5 34t-61 13q-33 0 -56.5 -11.5t-36.5 -28t-20 -45t-8.5 -51.5t-1.5 -58v-553zM598 236q33 0 57 11.5t37 29t20.5 45.5t9.5 52.5t2 58.5v663l-249 -671q0 -33 2 -56.5t9.5 -50.5t20 -43.5t36 -27.5t55.5 -11zM250 -182l-81 32l84 227
q-154 128 -154 447v612q0 134 25.5 231.5t83 169.5t155 108t235.5 36q70 0 129 -9.5t107 -27.5l62 166l81 -32l-64 -174q98 -64 142.5 -181t44.5 -287v-612q0 -270 -116.5 -408.5t-385.5 -138.5q-163 0 -270 52z" />
    <glyph glyph-name="Ugrave" unicode="&#xd9;" horiz-adv-x="1202" 
d="M497 1803l-259 412h343l124 -412h-208zM601 -23q-113 0 -197.5 23.5t-140 66.5t-90 111.5t-48.5 151t-14 192.5v1136h362v-1190q0 -39 2 -66.5t9.5 -59.5t20.5 -52.5t37.5 -34t58.5 -13.5t58 13.5t37 34t20.5 52.5t9.5 60t2 66v1190h363v-1136q0 -138 -23.5 -235
t-78.5 -169t-151 -106.5t-237 -34.5z" />
    <glyph glyph-name="Uacute" unicode="&#xda;" horiz-adv-x="1202" 
d="M497 1803l126 412h342l-259 -412h-209zM601 -23q-113 0 -197.5 23.5t-140 66.5t-90 111.5t-48.5 151t-14 192.5v1136h362v-1190q0 -39 2 -66.5t9.5 -59.5t20.5 -52.5t37.5 -34t58.5 -13.5t58 13.5t37 34t20.5 52.5t9.5 60t2 66v1190h363v-1136q0 -138 -23.5 -235
t-78.5 -169t-151 -106.5t-237 -34.5z" />
    <glyph glyph-name="Ucircumflex" unicode="&#xdb;" horiz-adv-x="1202" 
d="M268 1803l193 391h275l199 -391h-245l-89 242l-89 -242h-244zM601 -23q-113 0 -197.5 23.5t-140 66.5t-90 111.5t-48.5 151t-14 192.5v1136h362v-1190q0 -39 2 -66.5t9.5 -59.5t20.5 -52.5t37.5 -34t58.5 -13.5t58 13.5t37 34t20.5 52.5t9.5 60t2 66v1190h363v-1136
q0 -138 -23.5 -235t-78.5 -169t-151 -106.5t-237 -34.5z" />
    <glyph glyph-name="Udieresis" unicode="&#xdc;" horiz-adv-x="1202" 
d="M687 1803v303h269v-303h-269zM246 1803v303h269v-303h-269zM601 -23q-113 0 -197.5 23.5t-140 66.5t-90 111.5t-48.5 151t-14 192.5v1136h362v-1190q0 -39 2 -66.5t9.5 -59.5t20.5 -52.5t37.5 -34t58.5 -13.5t58 13.5t37 34t20.5 52.5t9.5 60t2 66v1190h363v-1136
q0 -138 -23.5 -235t-78.5 -169t-151 -106.5t-237 -34.5z" />
    <glyph glyph-name="Yacute" unicode="&#xdd;" horiz-adv-x="1011" 
d="M401 1803l126 412h342l-259 -412h-209zM332 0v678l-316 980h345l158 -525l143 525h333l-312 -980v-678h-351z" />
    <glyph glyph-name="Thorn" unicode="&#xde;" horiz-adv-x="1147" 
d="M472 739h113q108 0 152.5 49.5t44.5 169.5q0 113 -42 163.5t-144 50.5h-124v-433zM106 0v1658h366v-221h159q250 0 368.5 -109t118.5 -354q0 -117 -20.5 -202t-59 -141.5t-101.5 -90t-141 -47.5t-185 -15l-139 -1v-477h-366z" />
    <glyph glyph-name="germandbls" unicode="&#xdf;" horiz-adv-x="1114" 
d="M532 -30v255q108 0 160 64q44 54 44 171q0 20 -1 43q-4 94 -57 154t-129 60l-3 258q72 0 110 65.5t38 188.5q0 108 -36 164t-100 56q-120 0 -120 -212v-10v-1227h-334v1226q0 71 13.5 135.5t45.5 124t80 102.5t121 69t164 26q230 0 340.5 -115.5t110.5 -332.5
q0 -257 -241 -356q154 -44 242 -156t88 -260q0 -258 -137.5 -375.5t-398.5 -117.5z" />
    <glyph glyph-name="agrave" unicode="&#xe0;" horiz-adv-x="976" 
d="M383 1326l-259 412h343l124 -412h-208zM469 209q24 0 49.5 16.5t41.5 39.5v324q-80 -40 -131.5 -112.5t-51.5 -141.5q0 -58 26 -92t66 -34zM348 -21q-126 2 -200.5 89.5t-74.5 199.5q0 58 14.5 108.5t35 87.5t57.5 72t67 56.5t79.5 46t79.5 36.5t81.5 31.5t72.5 28.5v117
q0 50 -15 77t-55 27q-68 0 -72 -94l-8 -87l-312 12q0 3 1 20t1 19q15 194 120.5 286t301.5 92q175 0 266.5 -97t91.5 -259v-551q0 -114 21 -297h-297q-26 144 -28 168q-24 -81 -82 -135t-146 -54z" />
    <glyph glyph-name="aacute" unicode="&#xe1;" horiz-adv-x="976" 
d="M383 1326l126 412h342l-259 -412h-209zM469 209q24 0 49.5 16.5t41.5 39.5v324q-80 -40 -131.5 -112.5t-51.5 -141.5q0 -58 26 -92t66 -34zM348 -21q-126 2 -200.5 89.5t-74.5 199.5q0 58 14.5 108.5t35 87.5t57.5 72t67 56.5t79.5 46t79.5 36.5t81.5 31.5t72.5 28.5v117
q0 50 -15 77t-55 27q-68 0 -72 -94l-8 -87l-312 12q0 3 1 20t1 19q15 194 120.5 286t301.5 92q175 0 266.5 -97t91.5 -259v-551q0 -114 21 -297h-297q-26 144 -28 168q-24 -81 -82 -135t-146 -54z" />
    <glyph glyph-name="acircumflex" unicode="&#xe2;" horiz-adv-x="976" 
d="M154 1326l193 391h275l199 -391h-245l-89 242l-89 -242h-244zM469 209q24 0 49.5 16.5t41.5 39.5v324q-80 -40 -131.5 -112.5t-51.5 -141.5q0 -58 26 -92t66 -34zM348 -21q-126 2 -200.5 89.5t-74.5 199.5q0 58 14.5 108.5t35 87.5t57.5 72t67 56.5t79.5 46t79.5 36.5
t81.5 31.5t72.5 28.5v117q0 50 -15 77t-55 27q-68 0 -72 -94l-8 -87l-312 12q0 3 1 20t1 19q15 194 120.5 286t301.5 92q175 0 266.5 -97t91.5 -259v-551q0 -114 21 -297h-297q-26 144 -28 168q-24 -81 -82 -135t-146 -54z" />
    <glyph glyph-name="atilde" unicode="&#xe3;" horiz-adv-x="976" 
d="M675 1326h-10q-39 0 -91 21q-59 24 -113 50t-82 26q-57 0 -57 -84h-160v13q0 82 12 136q13 58 52 97t106 44q8 1 17 1q44 0 92 -18q56 -21 101.5 -45.5t63.5 -26.5q6 -1 11 -1q47 0 47 77h148q0 -58 -4.5 -103t-18 -89t-42.5 -69.5t-72 -28.5zM469 209q24 0 49.5 16.5
t41.5 39.5v324q-80 -40 -131.5 -112.5t-51.5 -141.5q0 -58 26 -92t66 -34zM348 -21q-126 2 -200.5 89.5t-74.5 199.5q0 58 14.5 108.5t35 87.5t57.5 72t67 56.5t79.5 46t79.5 36.5t81.5 31.5t72.5 28.5v117q0 50 -15 77t-55 27q-68 0 -72 -94l-8 -87l-312 12q0 3 1 20t1 19
q15 194 120.5 286t301.5 92q175 0 266.5 -97t91.5 -259v-551q0 -114 21 -297h-297q-26 144 -28 168q-24 -81 -82 -135t-146 -54z" />
    <glyph glyph-name="adieresis" unicode="&#xe4;" horiz-adv-x="976" 
d="M573 1326v303h269v-303h-269zM132 1326v303h269v-303h-269zM469 209q24 0 49.5 16.5t41.5 39.5v324q-80 -40 -131.5 -112.5t-51.5 -141.5q0 -58 26 -92t66 -34zM348 -21q-126 2 -200.5 89.5t-74.5 199.5q0 58 14.5 108.5t35 87.5t57.5 72t67 56.5t79.5 46t79.5 36.5
t81.5 31.5t72.5 28.5v117q0 50 -15 77t-55 27q-68 0 -72 -94l-8 -87l-312 12q0 3 1 20t1 19q15 194 120.5 286t301.5 92q175 0 266.5 -97t91.5 -259v-551q0 -114 21 -297h-297q-26 144 -28 168q-24 -81 -82 -135t-146 -54z" />
    <glyph glyph-name="aring" unicode="&#xe5;" horiz-adv-x="976" 
d="M486 1445q48 0 75 31t27 78q0 46 -27 77t-75 31t-75 -31t-27 -77q0 -47 27 -78t75 -31zM486 1326q-103 0 -171 60t-68 168q0 107 68 166.5t171 59.5q104 0 173 -60t69 -166q0 -108 -69 -168t-173 -60zM469 209q24 0 49.5 16.5t41.5 39.5v324q-80 -40 -131.5 -112.5
t-51.5 -141.5q0 -58 26 -92t66 -34zM348 -21q-126 2 -200.5 89.5t-74.5 199.5q0 58 14.5 108.5t35 87.5t57.5 72t67 56.5t79.5 46t79.5 36.5t81.5 31.5t72.5 28.5v117q0 50 -15 77t-55 27q-68 0 -72 -94l-8 -87l-312 12q0 3 1 20t1 19q15 194 120.5 286t301.5 92
q175 0 266.5 -97t91.5 -259v-551q0 -114 21 -297h-297q-26 144 -28 168q-24 -81 -82 -135t-146 -54z" />
    <glyph glyph-name="ae" unicode="&#xe6;" horiz-adv-x="1369" 
d="M855 746q73 10 99 36q33 17 49.5 44t16.5 75q0 54 -20 83t-55 29q-40 0 -65 -37.5t-25 -97.5v-132zM442 204q99 0 99 145l-2 195q-33 -10 -64 -27q-60 -37 -89.5 -94.5t-29.5 -105.5q0 -41 22 -77t64 -36zM366 -24q-130 2 -217.5 82.5t-87.5 218.5q0 73 18 132.5
t47.5 99.5t73 70.5t86.5 48.5t97 31q84 19 156 32v149q0 112 -74 112q-39 0 -58 -33.5t-19 -119.5h-324v9q0 202 92 312q94 113 285 113q93 0 160 -43.5t85 -112.5q27 67 99 111t164 44q85 0 153.5 -27t110.5 -72.5t64 -101t22 -116.5q0 -56 -19 -101.5t-49.5 -76t-76 -55
t-89 -39t-99.5 -27.5q-11 -3 -32 -7t-46 -8.5t-33 -6.5v-196q0 -32 0.5 -48t2 -41.5t6 -38.5t11.5 -28t19 -21t28 -6q14 0 24.5 4t16.5 15t10 19.5t5.5 29t1.5 31.5v37v63h309v-94q0 -164 -88 -253.5t-254 -90.5q-58 0 -114.5 20.5t-101.5 63.5t-58 100q-37 -87 -123 -137
q-81 -47 -173 -47h-11z" />
    <glyph glyph-name="ccedilla" unicode="&#xe7;" horiz-adv-x="959" 
d="M369 -544v145q41 -12 96 -16q12 -1 24 -1q40 0 78 11q48 14 48 49q0 39 -32.5 66.5t-71.5 38.5t-85 14v237h124v-135q118 -5 199 -61q82 -57 82 -149q0 -75 -42 -127q-43 -54 -112 -76q-66 -21 -142 -20h-8q-80 1 -158 24zM490 -21q-195 0 -302 105.5t-107 294.5v428
q0 188 107 292.5t302 104.5q192 0 295.5 -89.5t103.5 -266.5v-125h-322v134q0 68 -18.5 93t-57.5 25t-57 -31t-18 -107v-491q0 -77 18.5 -106t56.5 -29q39 0 57.5 26.5t18.5 88.5v156h322v-143q0 -176 -104.5 -268t-294.5 -92z" />
    <glyph glyph-name="egrave" unicode="&#xe8;" horiz-adv-x="962" 
d="M379 1326l-259 412h343l124 -412h-208zM412 727h163v118q0 66 -22 93.5t-63 27.5q-39 0 -58.5 -32t-19.5 -109v-98zM491 -21q-196 0 -303 105t-107 296v424q0 191 107.5 295.5t302.5 104.5q197 0 295.5 -101.5t98.5 -298.5v-233h-473v-208q0 -72 18 -108.5t61 -36.5
q84 0 84 115v79h310v-69q0 -177 -103.5 -270.5t-290.5 -93.5z" />
    <glyph glyph-name="eacute" unicode="&#xe9;" horiz-adv-x="962" 
d="M379 1326l126 412h342l-259 -412h-209zM412 727h163v118q0 66 -22 93.5t-63 27.5q-39 0 -58.5 -32t-19.5 -109v-98zM491 -21q-196 0 -303 105t-107 296v424q0 191 107.5 295.5t302.5 104.5q197 0 295.5 -101.5t98.5 -298.5v-233h-473v-208q0 -72 18 -108.5t61 -36.5
q84 0 84 115v79h310v-69q0 -177 -103.5 -270.5t-290.5 -93.5z" />
    <glyph glyph-name="ecircumflex" unicode="&#xea;" horiz-adv-x="962" 
d="M150 1326l193 391h275l199 -391h-245l-89 242l-89 -242h-244zM412 727h163v118q0 66 -22 93.5t-63 27.5q-39 0 -58.5 -32t-19.5 -109v-98zM491 -21q-196 0 -303 105t-107 296v424q0 191 107.5 295.5t302.5 104.5q197 0 295.5 -101.5t98.5 -298.5v-233h-473v-208
q0 -72 18 -108.5t61 -36.5q84 0 84 115v79h310v-69q0 -177 -103.5 -270.5t-290.5 -93.5z" />
    <glyph glyph-name="edieresis" unicode="&#xeb;" horiz-adv-x="962" 
d="M569 1326v303h269v-303h-269zM128 1326v303h269v-303h-269zM412 727h163v118q0 66 -22 93.5t-63 27.5q-39 0 -58.5 -32t-19.5 -109v-98zM491 -21q-196 0 -303 105t-107 296v424q0 191 107.5 295.5t302.5 104.5q197 0 295.5 -101.5t98.5 -298.5v-233h-473v-208
q0 -72 18 -108.5t61 -36.5q84 0 84 115v79h310v-69q0 -177 -103.5 -270.5t-290.5 -93.5z" />
    <glyph glyph-name="igrave" unicode="&#xec;" horiz-adv-x="573" 
d="M184 1326l-259 412h343l124 -412h-208zM121 0v1184h334v-1184h-334z" />
    <glyph glyph-name="iacute" unicode="&#xed;" horiz-adv-x="573" 
d="M183 1326l126 412h342l-259 -412h-209zM121 0v1184h334v-1184h-334z" />
    <glyph glyph-name="icircumflex" unicode="&#xee;" horiz-adv-x="573" 
d="M-46 1326l193 391h275l199 -391h-245l-89 242l-89 -242h-244zM121 0v1184h334v-1184h-334z" />
    <glyph glyph-name="idieresis" unicode="&#xef;" horiz-adv-x="573" 
d="M374 1326v303h269v-303h-269zM-67 1326v303h269v-303h-269zM121 0v1184h334v-1184h-334z" />
    <glyph glyph-name="eth" unicode="&#xf0;" horiz-adv-x="1064" 
d="M437 593q0 -229 3 -264q7 -103 48 -126q17 -9 42 -9q56 0 76.5 40t20.5 119v594q-1 1 -13 7t-18.5 8.5t-19 5.5t-25.5 3q-70 0 -92 -76.5t-22 -301.5zM961 443q0 -107 -22 -189.5t-60 -135t-93.5 -86.5t-118 -47.5t-138.5 -13.5q-195 0 -307.5 113t-112.5 349v339
q0 187 103 302.5t257 115.5q86 0 157 -39q-1 78 -15.5 138t-34.5 86l-180 -93l-37 86l164 86q-53 63 -249 63l15 208q343 0 473 -138l182 97l36 -88l-158 -83q54 -87 96.5 -239t42.5 -366v-465z" />
    <glyph glyph-name="ntilde" unicode="&#xf1;" horiz-adv-x="1039" 
d="M711 1326h-10q-39 0 -91 21q-59 24 -113 50t-82 26q-57 0 -57 -84h-160v13q0 82 12 136q13 58 52 97t106 44q8 1 17 1q44 0 92 -18q56 -21 101.5 -45.5t63.5 -26.5q6 -1 11 -1q47 0 47 77h148q0 -58 -4.5 -103t-18 -89t-42.5 -69.5t-72 -28.5zM104 0v1184h334v-118
q141 138 287 138q105 0 161 -77t56 -198v-929h-334v879q0 45 -14 66.5t-52 20.5q-42 0 -104 -41v-925h-334z" />
    <glyph glyph-name="ograve" unicode="&#xf2;" horiz-adv-x="989" 
d="M390 1326l-259 412h343l124 -412h-208zM493 -21q-194 0 -303 100t-109 289v447q0 190 109 289.5t303 99.5t304.5 -100t110.5 -289v-447q0 -189 -110.5 -289t-304.5 -100zM493 203q48 0 66.5 35.5t18.5 106.5v493q0 72 -18.5 107.5t-66.5 35.5q-46 0 -64.5 -36.5
t-18.5 -106.5v-493q0 -69 18.5 -105.5t64.5 -36.5z" />
    <glyph glyph-name="oacute" unicode="&#xf3;" horiz-adv-x="989" 
d="M390 1326l126 412h342l-259 -412h-209zM493 -21q-194 0 -303 100t-109 289v447q0 190 109 289.5t303 99.5t304.5 -100t110.5 -289v-447q0 -189 -110.5 -289t-304.5 -100zM493 203q48 0 66.5 35.5t18.5 106.5v493q0 72 -18.5 107.5t-66.5 35.5q-46 0 -64.5 -36.5
t-18.5 -106.5v-493q0 -69 18.5 -105.5t64.5 -36.5z" />
    <glyph glyph-name="ocircumflex" unicode="&#xf4;" horiz-adv-x="989" 
d="M161 1326l193 391h275l199 -391h-245l-89 242l-89 -242h-244zM493 -21q-194 0 -303 100t-109 289v447q0 190 109 289.5t303 99.5t304.5 -100t110.5 -289v-447q0 -189 -110.5 -289t-304.5 -100zM493 203q48 0 66.5 35.5t18.5 106.5v493q0 72 -18.5 107.5t-66.5 35.5
q-46 0 -64.5 -36.5t-18.5 -106.5v-493q0 -69 18.5 -105.5t64.5 -36.5z" />
    <glyph glyph-name="otilde" unicode="&#xf5;" horiz-adv-x="989" 
d="M682 1326h-10q-39 0 -91 21q-59 24 -113 50t-82 26q-57 0 -57 -84h-160v13q0 82 12 136q13 58 52 97t106 44q8 1 17 1q44 0 92 -18q56 -21 101.5 -45.5t63.5 -26.5q6 -1 11 -1q47 0 47 77h148q0 -58 -4.5 -103t-18 -89t-42.5 -69.5t-72 -28.5zM493 -21q-194 0 -303 100
t-109 289v447q0 190 109 289.5t303 99.5t304.5 -100t110.5 -289v-447q0 -189 -110.5 -289t-304.5 -100zM493 203q48 0 66.5 35.5t18.5 106.5v493q0 72 -18.5 107.5t-66.5 35.5q-46 0 -64.5 -36.5t-18.5 -106.5v-493q0 -69 18.5 -105.5t64.5 -36.5z" />
    <glyph glyph-name="odieresis" unicode="&#xf6;" horiz-adv-x="989" 
d="M581 1326v303h269v-303h-269zM140 1326v303h269v-303h-269zM493 -21q-194 0 -303 100t-109 289v447q0 190 109 289.5t303 99.5t304.5 -100t110.5 -289v-447q0 -189 -110.5 -289t-304.5 -100zM493 203q48 0 66.5 35.5t18.5 106.5v493q0 72 -18.5 107.5t-66.5 35.5
q-46 0 -64.5 -36.5t-18.5 -106.5v-493q0 -69 18.5 -105.5t64.5 -36.5z" />
    <glyph glyph-name="divide" unicode="&#xf7;" horiz-adv-x="929" 
d="M371 1086v255h207v-255h-207zM70 767v180h789v-180h-789zM371 358v255h207v-255h-207z" />
    <glyph glyph-name="oslash" unicode="&#xf8;" horiz-adv-x="977" 
d="M410 527l158 396q-17 58 -75 58q-46 0 -64.5 -36.5t-18.5 -106.5v-311zM493 203q48 0 66.5 35.5t18.5 106.5v376l-166 -414q9 -104 81 -104zM214 -185l-76 32l83 207q-140 100 -140 314v447q0 190 109 289.5t303 99.5q99 0 177 -26l81 202l79 -32l-83 -206
q161 -99 161 -327v-447q0 -189 -110.5 -289t-304.5 -100q-114 0 -199 35z" />
    <glyph glyph-name="ugrave" unicode="&#xf9;" horiz-adv-x="1030" 
d="M406 1326l-259 412h343l124 -412h-208zM311 -20q-105 0 -161 77t-56 198v929h334v-889q0 -44 15.5 -66.5t52.5 -21.5q40 1 95 36v941h334v-1184h-334v109q-137 -129 -280 -129z" />
    <glyph glyph-name="uacute" unicode="&#xfa;" horiz-adv-x="1030" 
d="M405 1326l126 412h342l-259 -412h-209zM311 -20q-105 0 -161 77t-56 198v929h334v-889q0 -44 15.5 -66.5t52.5 -21.5q40 1 95 36v941h334v-1184h-334v109q-137 -129 -280 -129z" />
    <glyph glyph-name="ucircumflex" unicode="&#xfb;" horiz-adv-x="1030" 
d="M176 1326l193 391h275l199 -391h-245l-89 242l-89 -242h-244zM311 -20q-105 0 -161 77t-56 198v929h334v-889q0 -44 15.5 -66.5t52.5 -21.5q40 1 95 36v941h334v-1184h-334v109q-137 -129 -280 -129z" />
    <glyph glyph-name="udieresis" unicode="&#xfc;" horiz-adv-x="1030" 
d="M595 1326v303h269v-303h-269zM154 1326v303h269v-303h-269zM311 -20q-105 0 -161 77t-56 198v929h334v-889q0 -44 15.5 -66.5t52.5 -21.5q40 1 95 36v941h334v-1184h-334v109q-137 -129 -280 -129z" />
    <glyph glyph-name="yacute" unicode="&#xfd;" 
d="M345 1326l126 412h342l-259 -412h-209zM136 -343v231q110 0 152 22q38 20 38 79q0 7 -1 14q-6 51 -44 186q-11 47 -138 497.5t-138 497.5h315l147 -683l112 683h315l-279 -1248q-62 -279 -423 -279h-10h-46z" />
    <glyph glyph-name="thorn" unicode="&#xfe;" horiz-adv-x="1012" 
d="M518 197h2q42 0 62 36q20 37 19 98v548q0 55 -21 90q-19 32 -58 32h-7q-38 -3 -86 -39v-736q48 -29 89 -29zM95 -390v2048h334v-561q119 107 243 107h11q128 -4 190.5 -102t62.5 -248v-505q0 -169 -67.5 -269.5t-192.5 -100.5q-122 0 -247 110v-479h-334z" />
    <glyph glyph-name="ydieresis" unicode="&#xff;" 
d="M535 1326v303h269v-303h-269zM94 1326v303h269v-303h-269zM136 -343v231q110 0 152 22q38 20 38 79q0 7 -1 14q-6 51 -44 186q-11 47 -138 497.5t-138 497.5h315l147 -683l112 683h315l-279 -1248q-62 -279 -423 -279h-10h-46z" />
    <glyph glyph-name="Amacron" unicode="&#x100;" horiz-adv-x="1127" 
d="M283 1803v157h560v-157h-560zM478 571h177l-89 642zM43 0l314 1658h414l312 -1658h-338l-57 352h-242l-56 -352h-347z" />
    <glyph glyph-name="amacron" unicode="&#x101;" horiz-adv-x="976" 
d="M207 1326v157h560v-157h-560zM469 209q24 0 49.5 16.5t41.5 39.5v324q-80 -40 -131.5 -112.5t-51.5 -141.5q0 -58 26 -92t66 -34zM348 -21q-126 2 -200.5 89.5t-74.5 199.5q0 58 14.5 108.5t35 87.5t57.5 72t67 56.5t79.5 46t79.5 36.5t81.5 31.5t72.5 28.5v117
q0 50 -15 77t-55 27q-68 0 -72 -94l-8 -87l-312 12q0 3 1 20t1 19q15 194 120.5 286t301.5 92q175 0 266.5 -97t91.5 -259v-551q0 -114 21 -297h-297q-26 144 -28 168q-24 -81 -82 -135t-146 -54z" />
    <glyph glyph-name="Abreve" unicode="&#x102;" horiz-adv-x="1127" 
d="M563 1803q-138 0 -214.5 68t-76.5 190h147q0 -63 34 -92t110 -29q75 0 110 29.5t35 91.5h146q0 -122 -76.5 -190t-214.5 -68zM478 571h177l-89 642zM43 0l314 1658h414l312 -1658h-338l-57 352h-242l-56 -352h-347z" />
    <glyph glyph-name="abreve" unicode="&#x103;" horiz-adv-x="976" 
d="M487 1326q-138 0 -214.5 68t-76.5 190h147q0 -63 34 -92t110 -29q75 0 110 29.5t35 91.5h146q0 -122 -76.5 -190t-214.5 -68zM469 209q24 0 49.5 16.5t41.5 39.5v324q-80 -40 -131.5 -112.5t-51.5 -141.5q0 -58 26 -92t66 -34zM348 -21q-126 2 -200.5 89.5t-74.5 199.5
q0 58 14.5 108.5t35 87.5t57.5 72t67 56.5t79.5 46t79.5 36.5t81.5 31.5t72.5 28.5v117q0 50 -15 77t-55 27q-68 0 -72 -94l-8 -87l-312 12q0 3 1 20t1 19q15 194 120.5 286t301.5 92q175 0 266.5 -97t91.5 -259v-551q0 -114 21 -297h-297q-26 144 -28 168q-24 -81 -82 -135
t-146 -54z" />
    <glyph glyph-name="Aogonek" unicode="&#x104;" horiz-adv-x="1127" 
d="M1056 -514h-36h-36h-13q-31 0 -63 4q-38 5 -74.5 12.5t-68 24.5t-55 39.5t-37 57.5t-13.5 80q0 82 46.5 170t116.5 143h152q-8 -27 -30.5 -80t-36 -98.5t-13.5 -86.5q0 -17 4 -31t10 -24t17 -18t19.5 -13t24.5 -8.5t24.5 -5.5t26.5 -3t24 -1h23.5h19.5zM478 571h177
l-89 642zM43 0l314 1658h414l312 -1658h-338l-57 352h-242l-56 -352h-347z" />
    <glyph glyph-name="aogonek" unicode="&#x105;" horiz-adv-x="976" 
d="M887 -514h-36h-36h-13q-31 0 -63 4q-38 5 -74.5 12.5t-68 24.5t-55 39.5t-37 57.5t-13.5 80q0 82 46.5 170t116.5 143h152q-8 -27 -30.5 -80t-36 -98.5t-13.5 -86.5q0 -17 4 -31t10 -24t17 -18t19.5 -13t24.5 -8.5t24.5 -5.5t26.5 -3t24 -1h23.5h19.5zM469 209
q24 0 49.5 16.5t41.5 39.5v324q-80 -40 -131.5 -112.5t-51.5 -141.5q0 -58 26 -92t66 -34zM348 -21q-126 2 -200.5 89.5t-74.5 199.5q0 58 14.5 108.5t35 87.5t57.5 72t67 56.5t79.5 46t79.5 36.5t81.5 31.5t72.5 28.5v117q0 50 -15 77t-55 27q-68 0 -72 -94l-8 -87l-312 12
q0 3 1 20t1 19q15 194 120.5 286t301.5 92q175 0 266.5 -97t91.5 -259v-551q0 -114 21 -297h-297q-26 144 -28 168q-24 -81 -82 -135t-146 -54z" />
    <glyph glyph-name="Cacute" unicode="&#x106;" horiz-adv-x="1151" 
d="M482 1803l126 412h342l-259 -412h-209zM597 -23q-139 0 -237 38.5t-154.5 113.5t-81.5 173t-25 230v591q0 135 25 234.5t81.5 174t154 112t237.5 37.5q134 0 228.5 -34t148 -100t77 -150t23.5 -195v-146h-358v167q0 39 -1 59t-7 51.5t-17.5 47.5t-35.5 28.5t-58 12.5
t-58 -12.5t-36.5 -30t-20 -48t-9 -55.5t-1.5 -62v-773q0 -100 26 -152.5t99 -52.5q33 0 56.5 12.5t35.5 29.5t18.5 48t7.5 54t1 61v174h358v-143q0 -89 -14 -161t-47.5 -135.5t-87 -106.5t-136.5 -67.5t-192 -24.5z" />
    <glyph glyph-name="cacute" unicode="&#x107;" horiz-adv-x="959" 
d="M381 1326l126 412h342l-259 -412h-209zM490 -21q-195 0 -302 105.5t-107 294.5v428q0 188 107 292.5t302 104.5q192 0 295.5 -89.5t103.5 -266.5v-125h-322v134q0 68 -18.5 93t-57.5 25t-57 -31t-18 -107v-491q0 -77 18.5 -106t56.5 -29q39 0 57.5 26.5t18.5 88.5v156
h322v-143q0 -176 -104.5 -268t-294.5 -92z" />
    <glyph glyph-name="Ccircumflex" unicode="&#x108;" horiz-adv-x="1151" 
d="M253 1803l193 391h275l199 -391h-245l-89 242l-89 -242h-244zM597 -23q-139 0 -237 38.5t-154.5 113.5t-81.5 173t-25 230v591q0 135 25 234.5t81.5 174t154 112t237.5 37.5q134 0 228.5 -34t148 -100t77 -150t23.5 -195v-146h-358v167q0 39 -1 59t-7 51.5t-17.5 47.5
t-35.5 28.5t-58 12.5t-58 -12.5t-36.5 -30t-20 -48t-9 -55.5t-1.5 -62v-773q0 -100 26 -152.5t99 -52.5q33 0 56.5 12.5t35.5 29.5t18.5 48t7.5 54t1 61v174h358v-143q0 -89 -14 -161t-47.5 -135.5t-87 -106.5t-136.5 -67.5t-192 -24.5z" />
    <glyph glyph-name="ccircumflex" unicode="&#x109;" horiz-adv-x="959" 
d="M152 1326l193 391h275l199 -391h-245l-89 242l-89 -242h-244zM490 -21q-195 0 -302 105.5t-107 294.5v428q0 188 107 292.5t302 104.5q192 0 295.5 -89.5t103.5 -266.5v-125h-322v134q0 68 -18.5 93t-57.5 25t-57 -31t-18 -107v-491q0 -77 18.5 -106t56.5 -29
q39 0 57.5 26.5t18.5 88.5v156h322v-143q0 -176 -104.5 -268t-294.5 -92z" />
    <glyph glyph-name="Cdotaccent" unicode="&#x10a;" horiz-adv-x="1151" 
d="M428 1803v314h317v-314h-317zM597 -23q-139 0 -237 38.5t-154.5 113.5t-81.5 173t-25 230v591q0 135 25 234.5t81.5 174t154 112t237.5 37.5q134 0 228.5 -34t148 -100t77 -150t23.5 -195v-146h-358v167q0 39 -1 59t-7 51.5t-17.5 47.5t-35.5 28.5t-58 12.5t-58 -12.5
t-36.5 -30t-20 -48t-9 -55.5t-1.5 -62v-773q0 -100 26 -152.5t99 -52.5q33 0 56.5 12.5t35.5 29.5t18.5 48t7.5 54t1 61v174h358v-143q0 -89 -14 -161t-47.5 -135.5t-87 -106.5t-136.5 -67.5t-192 -24.5z" />
    <glyph glyph-name="cdotaccent" unicode="&#x10b;" horiz-adv-x="959" 
d="M326 1326v314h317v-314h-317zM490 -21q-195 0 -302 105.5t-107 294.5v428q0 188 107 292.5t302 104.5q192 0 295.5 -89.5t103.5 -266.5v-125h-322v134q0 68 -18.5 93t-57.5 25t-57 -31t-18 -107v-491q0 -77 18.5 -106t56.5 -29q39 0 57.5 26.5t18.5 88.5v156h322v-143
q0 -176 -104.5 -268t-294.5 -92z" />
    <glyph glyph-name="Ccaron" unicode="&#x10c;" horiz-adv-x="1151" 
d="M424 1803l-177 380h236l102 -223l105 223h237l-182 -380h-321zM597 -23q-139 0 -237 38.5t-154.5 113.5t-81.5 173t-25 230v591q0 135 25 234.5t81.5 174t154 112t237.5 37.5q134 0 228.5 -34t148 -100t77 -150t23.5 -195v-146h-358v167q0 39 -1 59t-7 51.5t-17.5 47.5
t-35.5 28.5t-58 12.5t-58 -12.5t-36.5 -30t-20 -48t-9 -55.5t-1.5 -62v-773q0 -100 26 -152.5t99 -52.5q33 0 56.5 12.5t35.5 29.5t18.5 48t7.5 54t1 61v174h358v-143q0 -89 -14 -161t-47.5 -135.5t-87 -106.5t-136.5 -67.5t-192 -24.5z" />
    <glyph glyph-name="ccaron" unicode="&#x10d;" horiz-adv-x="959" 
d="M322 1326l-177 380h236l102 -223l105 223h237l-182 -380h-321zM490 -21q-195 0 -302 105.5t-107 294.5v428q0 188 107 292.5t302 104.5q192 0 295.5 -89.5t103.5 -266.5v-125h-322v134q0 68 -18.5 93t-57.5 25t-57 -31t-18 -107v-491q0 -77 18.5 -106t56.5 -29
q39 0 57.5 26.5t18.5 88.5v156h322v-143q0 -176 -104.5 -268t-294.5 -92z" />
    <glyph glyph-name="Dcaron" unicode="&#x10e;" horiz-adv-x="1196" 
d="M446 1803l-177 380h236l102 -223l105 223h237l-182 -380h-321zM122 0v1658h417q163 0 270.5 -29t171.5 -95t90 -161.5t26 -239.5v-598q0 -145 -26.5 -242.5t-90 -165t-170 -97.5t-266.5 -30h-422zM488 254h56q42 0 71.5 5.5t49 19.5t31 29.5t17 45t7 56t1.5 71.5v713
q0 63 -5 97t-23 62t-53.5 38.5t-96.5 10.5h-55v-1148z" />
    <glyph glyph-name="dcaron" unicode="&#x10f;" horiz-adv-x="1256" 
d="M1110 1044v614h274l-112 -614h-162zM506 194q35 0 87 29v745q-44 26 -85 26q-44 0 -65 -35.5t-21 -92.5v-540q0 -58 20 -95t64 -37zM362 -21q-134 0 -204.5 93t-70.5 276v481q0 169 70.5 272t204.5 103q123 0 231 -93v547h334v-1658h-334v90q-113 -110 -231 -111z" />
    <glyph glyph-name="Dcroat" unicode="&#x110;" horiz-adv-x="1205" 
d="M131 0v765h-104v169h104v724h418q163 0 270 -29t171 -95t90 -161.5t26 -239.5v-598q0 -145 -26 -242.5t-89.5 -165t-170 -97.5t-266.5 -30h-423zM489 254h72q50 0 82.5 9.5t51.5 24.5t28.5 47t12 62t2.5 84v713q0 63 -5 97t-23.5 62t-54 38.5t-96.5 10.5h-70v-468h99
v-169h-99v-511z" />
    <glyph glyph-name="dcroat" unicode="&#x111;" horiz-adv-x="1024" 
d="M500 194q33 0 83 29v746q-45 25 -81 25q-44 0 -65 -35.5t-21 -92.5v-540q0 -58 20 -95t64 -37zM356 -21q-134 0 -204.5 93t-70.5 276v481q0 169 70.5 272t204.5 103q121 0 227 -93v282h-274v136h274v129h334v-129h101v-136h-101v-1393h-334v90q-111 -110 -227 -111z" />
    <glyph glyph-name="Emacron" unicode="&#x112;" 
d="M217 1803v157h560v-157h-560zM122 0v1658h745v-250h-379v-410h289v-255h-289v-495h383v-248h-749z" />
    <glyph glyph-name="emacron" unicode="&#x113;" horiz-adv-x="962" 
d="M203 1326v157h560v-157h-560zM412 727h163v118q0 66 -22 93.5t-63 27.5q-39 0 -58.5 -32t-19.5 -109v-98zM491 -21q-196 0 -303 105t-107 296v424q0 191 107.5 295.5t302.5 104.5q197 0 295.5 -101.5t98.5 -298.5v-233h-473v-208q0 -72 18 -108.5t61 -36.5q84 0 84 115
v79h310v-69q0 -177 -103.5 -270.5t-290.5 -93.5z" />
    <glyph glyph-name="Ebreve" unicode="&#x114;" 
d="M497 1803q-138 0 -214.5 68t-76.5 190h147q0 -63 34 -92t110 -29q75 0 110 29.5t35 91.5h146q0 -122 -76.5 -190t-214.5 -68zM122 0v1658h745v-250h-379v-410h289v-255h-289v-495h383v-248h-749z" />
    <glyph glyph-name="ebreve" unicode="&#x115;" horiz-adv-x="962" 
d="M483 1326q-138 0 -214.5 68t-76.5 190h147q0 -63 34 -92t110 -29q75 0 110 29.5t35 91.5h146q0 -122 -76.5 -190t-214.5 -68zM412 727h163v118q0 66 -22 93.5t-63 27.5q-39 0 -58.5 -32t-19.5 -109v-98zM491 -21q-196 0 -303 105t-107 296v424q0 191 107.5 295.5
t302.5 104.5q197 0 295.5 -101.5t98.5 -298.5v-233h-473v-208q0 -72 18 -108.5t61 -36.5q84 0 84 115v79h310v-69q0 -177 -103.5 -270.5t-290.5 -93.5z" />
    <glyph glyph-name="Edotaccent" unicode="&#x116;" 
d="M338 1803v314h317v-314h-317zM122 0v1658h745v-250h-379v-410h289v-255h-289v-495h383v-248h-749z" />
    <glyph glyph-name="edotaccent" unicode="&#x117;" horiz-adv-x="962" 
d="M324 1326v314h317v-314h-317zM412 727h163v118q0 66 -22 93.5t-63 27.5q-39 0 -58.5 -32t-19.5 -109v-98zM491 -21q-196 0 -303 105t-107 296v424q0 191 107.5 295.5t302.5 104.5q197 0 295.5 -101.5t98.5 -298.5v-233h-473v-208q0 -72 18 -108.5t61 -36.5q84 0 84 115
v79h310v-69q0 -177 -103.5 -270.5t-290.5 -93.5z" />
    <glyph glyph-name="Eogonek" unicode="&#x118;" 
d="M746 -514h-36h-36h-13q-31 0 -63 4q-38 5 -74.5 12.5t-68 24.5t-55 39.5t-37 57.5t-13.5 80q0 82 46.5 170t116.5 143h152q-8 -27 -30.5 -80t-36 -98.5t-13.5 -86.5q0 -17 4 -31t10 -24t17 -18t19.5 -13t24.5 -8.5t24.5 -5.5t26.5 -3t24 -1h23.5h19.5zM122 0v1658h745
v-250h-379v-410h289v-255h-289v-495h383v-248h-749z" />
    <glyph glyph-name="eogonek" unicode="&#x119;" horiz-adv-x="962" 
d="M706 -514h-36h-36h-13q-31 0 -63 4q-38 5 -74.5 12.5t-68 24.5t-55 39.5t-37 57.5t-13.5 80q0 82 46.5 170t116.5 143h152q-8 -27 -30.5 -80t-36 -98.5t-13.5 -86.5q0 -17 4 -31t10 -24t17 -18t19.5 -13t24.5 -8.5t24.5 -5.5t26.5 -3t24 -1h23.5h19.5zM412 727h163v118
q0 66 -22 93.5t-63 27.5q-39 0 -58.5 -32t-19.5 -109v-98zM491 -21q-196 0 -303 105t-107 296v424q0 191 107.5 295.5t302.5 104.5q197 0 295.5 -101.5t98.5 -298.5v-233h-473v-208q0 -72 18 -108.5t61 -36.5q84 0 84 115v79h310v-69q0 -177 -103.5 -270.5t-290.5 -93.5z
" />
    <glyph glyph-name="Ecaron" unicode="&#x11a;" 
d="M334 1803l-177 380h236l102 -223l105 223h237l-182 -380h-321zM122 0v1658h745v-250h-379v-410h289v-255h-289v-495h383v-248h-749z" />
    <glyph glyph-name="ecaron" unicode="&#x11b;" horiz-adv-x="962" 
d="M320 1326l-177 380h236l102 -223l105 223h237l-182 -380h-321zM412 727h163v118q0 66 -22 93.5t-63 27.5q-39 0 -58.5 -32t-19.5 -109v-98zM491 -21q-196 0 -303 105t-107 296v424q0 191 107.5 295.5t302.5 104.5q197 0 295.5 -101.5t98.5 -298.5v-233h-473v-208
q0 -72 18 -108.5t61 -36.5q84 0 84 115v79h310v-69q0 -177 -103.5 -270.5t-290.5 -93.5z" />
    <glyph glyph-name="Gcircumflex" unicode="&#x11c;" horiz-adv-x="1190" 
d="M259 1803l193 391h275l199 -391h-245l-89 242l-89 -242h-244zM555 -24q-126 0 -215.5 40.5t-141.5 118.5t-75.5 180t-23.5 236v551q0 110 15.5 197t51 160t92.5 121t142 74.5t197 26.5q108 0 191 -23t138.5 -64t90.5 -102.5t50 -134t15 -162.5v-105h-358v133
q0 38 -1.5 62t-8 53t-19 45t-36 27.5t-57.5 11.5q-35 0 -59.5 -13t-37.5 -31.5t-20.5 -49.5t-9 -56.5t-1.5 -62.5v-759q0 -99 29.5 -156.5t107.5 -57.5q144 0 144 221v186h-150v219h481v-862h-243l-21 139q-73 -163 -267 -163z" />
    <glyph glyph-name="gcircumflex" unicode="&#x11d;" horiz-adv-x="1022" 
d="M217 1377l193 391h275l199 -391h-245l-89 242l-89 -242h-244zM506 566q57 0 74 47.5t17 170.5q0 129 -15.5 174.5t-76.5 45.5q-21 0 -36 -5.5t-25 -20.5t-15.5 -29.5t-8 -44.5t-3 -53t-0.5 -67q0 -59 3 -94.5t11.5 -66t27 -44t47.5 -13.5zM549 -146q82 0 120 17t42 57
q1 10 1 20q0 38 -22 56q-28 24 -102 31l-179 22q-47 -69 -47 -117q0 -45 41.5 -65.5t145.5 -20.5zM550 -355q-48 0 -87.5 1.5t-93 6.5t-95.5 14t-85.5 26t-72 40.5t-47 58.5t-18.5 78q0 118 169 235q-74 27 -108 59t-40 74q-3 16 -3 32q0 48 28 87q37 52 119 117
q-129 94 -129 294q0 221 107.5 328.5t304.5 107.5q189 0 270 -103q75 88 160 132l44 22l77 -163q-30 -9 -95 -38t-103 -52q59 -90 59 -232q0 -191 -96.5 -297.5t-292.5 -106.5q-47 0 -101.5 10.5t-87.5 24.5q-36 -47 -36 -74q0 -4 1 -8q4 -30 109 -45q28 -5 127 -17.5
t130 -16.5q171 -23 240.5 -90.5t69.5 -194.5q0 -72 -21 -126.5t-69 -97t-132 -64.5t-202 -22z" />
    <glyph glyph-name="Gbreve" unicode="&#x11e;" horiz-adv-x="1190" 
d="M593 1803q-138 0 -214.5 68t-76.5 190h147q0 -63 34 -92t110 -29q75 0 110 29.5t35 91.5h146q0 -122 -76.5 -190t-214.5 -68zM555 -24q-126 0 -215.5 40.5t-141.5 118.5t-75.5 180t-23.5 236v551q0 110 15.5 197t51 160t92.5 121t142 74.5t197 26.5q108 0 191 -23
t138.5 -64t90.5 -102.5t50 -134t15 -162.5v-105h-358v133q0 38 -1.5 62t-8 53t-19 45t-36 27.5t-57.5 11.5q-35 0 -59.5 -13t-37.5 -31.5t-20.5 -49.5t-9 -56.5t-1.5 -62.5v-759q0 -99 29.5 -156.5t107.5 -57.5q144 0 144 221v186h-150v219h481v-862h-243l-21 139
q-73 -163 -267 -163z" />
    <glyph glyph-name="gbreve" unicode="&#x11f;" horiz-adv-x="1022" 
d="M551 1377q-138 0 -214.5 68t-76.5 190h147q0 -63 34 -92t110 -29q75 0 110 29.5t35 91.5h146q0 -122 -76.5 -190t-214.5 -68zM506 566q57 0 74 47.5t17 170.5q0 129 -15.5 174.5t-76.5 45.5q-21 0 -36 -5.5t-25 -20.5t-15.5 -29.5t-8 -44.5t-3 -53t-0.5 -67
q0 -59 3 -94.5t11.5 -66t27 -44t47.5 -13.5zM549 -146q82 0 120 17t42 57q1 10 1 20q0 38 -22 56q-28 24 -102 31l-179 22q-47 -69 -47 -117q0 -45 41.5 -65.5t145.5 -20.5zM550 -355q-48 0 -87.5 1.5t-93 6.5t-95.5 14t-85.5 26t-72 40.5t-47 58.5t-18.5 78q0 118 169 235
q-74 27 -108 59t-40 74q-3 16 -3 32q0 48 28 87q37 52 119 117q-129 94 -129 294q0 221 107.5 328.5t304.5 107.5q189 0 270 -103q75 88 160 132l44 22l77 -163q-30 -9 -95 -38t-103 -52q59 -90 59 -232q0 -191 -96.5 -297.5t-292.5 -106.5q-47 0 -101.5 10.5t-87.5 24.5
q-36 -47 -36 -74q0 -4 1 -8q4 -30 109 -45q28 -5 127 -17.5t130 -16.5q171 -23 240.5 -90.5t69.5 -194.5q0 -72 -21 -126.5t-69 -97t-132 -64.5t-202 -22z" />
    <glyph glyph-name="Gdotaccent" unicode="&#x120;" horiz-adv-x="1190" 
d="M434 1803v314h317v-314h-317zM555 -24q-126 0 -215.5 40.5t-141.5 118.5t-75.5 180t-23.5 236v551q0 110 15.5 197t51 160t92.5 121t142 74.5t197 26.5q108 0 191 -23t138.5 -64t90.5 -102.5t50 -134t15 -162.5v-105h-358v133q0 38 -1.5 62t-8 53t-19 45t-36 27.5
t-57.5 11.5q-35 0 -59.5 -13t-37.5 -31.5t-20.5 -49.5t-9 -56.5t-1.5 -62.5v-759q0 -99 29.5 -156.5t107.5 -57.5q144 0 144 221v186h-150v219h481v-862h-243l-21 139q-73 -163 -267 -163z" />
    <glyph glyph-name="gdotaccent" unicode="&#x121;" horiz-adv-x="1022" 
d="M392 1377v314h317v-314h-317zM506 566q57 0 74 47.5t17 170.5q0 129 -15.5 174.5t-76.5 45.5q-21 0 -36 -5.5t-25 -20.5t-15.5 -29.5t-8 -44.5t-3 -53t-0.5 -67q0 -59 3 -94.5t11.5 -66t27 -44t47.5 -13.5zM549 -146q82 0 120 17t42 57q1 10 1 20q0 38 -22 56
q-28 24 -102 31l-179 22q-47 -69 -47 -117q0 -45 41.5 -65.5t145.5 -20.5zM550 -355q-48 0 -87.5 1.5t-93 6.5t-95.5 14t-85.5 26t-72 40.5t-47 58.5t-18.5 78q0 118 169 235q-74 27 -108 59t-40 74q-3 16 -3 32q0 48 28 87q37 52 119 117q-129 94 -129 294
q0 221 107.5 328.5t304.5 107.5q189 0 270 -103q75 88 160 132l44 22l77 -163q-30 -9 -95 -38t-103 -52q59 -90 59 -232q0 -191 -96.5 -297.5t-292.5 -106.5q-47 0 -101.5 10.5t-87.5 24.5q-36 -47 -36 -74q0 -4 1 -8q4 -30 109 -45q28 -5 127 -17.5t130 -16.5
q171 -23 240.5 -90.5t69.5 -194.5q0 -72 -21 -126.5t-69 -97t-132 -64.5t-202 -22z" />
    <glyph glyph-name="Gcommaaccent" unicode="&#x122;" horiz-adv-x="1190" 
d="M491 -733l-28 113q66 10 105.5 46t39.5 116h-173v312h315l-1 -268q0 -318 -258 -319zM555 -24q-126 0 -215.5 40.5t-141.5 118.5t-75.5 180t-23.5 236v551q0 110 15.5 197t51 160t92.5 121t142 74.5t197 26.5q108 0 191 -23t138.5 -64t90.5 -102.5t50 -134t15 -162.5
v-105h-358v133q0 38 -1.5 62t-8 53t-19 45t-36 27.5t-57.5 11.5q-35 0 -59.5 -13t-37.5 -31.5t-20.5 -49.5t-9 -56.5t-1.5 -62.5v-759q0 -99 29.5 -156.5t107.5 -57.5q144 0 144 221v186h-150v219h481v-862h-243l-21 139q-73 -163 -267 -163z" />
    <glyph glyph-name="gcommaaccent" unicode="&#x123;" horiz-adv-x="901" 
d="M509 560q27 0 46 11t30 28.5t17 48.5t8 62.5t2 78.5q0 61 -3 97t-13.5 68.5t-32 46.5t-56.5 14q-34 0 -55 -16.5t-30 -52.5t-11.5 -68t-2.5 -89t3 -93.5t13 -70t31 -49.5t54 -16zM536 -167q175 0 183 80q1 10 1 19q0 40 -24 61q-30 25 -117 40l-163 25q-66 -77 -66 -128
q0 -97 186 -97zM393 1483v259q2 316 264 331l15 -97q-64 -21 -103.5 -62t-39.5 -120h174v-311h-310zM536 -361q-45 0 -86.5 2t-93 8.5t-94.5 17t-85.5 28.5t-72 42.5t-47.5 60.5t-18 80q0 103 178 231q-78 30 -116.5 59t-45.5 66q-4 16 -4 32q-1 19 5 38q10 35 35.5 67.5
t50.5 57t63 55.5q-131 92 -131 286q0 213 112.5 324.5t314.5 111.5q88 0 162 -28.5t116 -76.5q80 95 161 138l45 22l76 -151q-73 -24 -196 -105q64 -85 64 -231q0 -189 -101.5 -296.5t-298.5 -107.5q-114 0 -207 40q-52 -64 -52 -97q0 -4 1 -8q4 -20 111 -41q14 -3 273 -43
q182 -29 254 -93.5t72 -184.5q0 -66 -23.5 -119t-74 -95.5t-138.5 -66t-209 -23.5z" />
    <glyph glyph-name="Hcircumflex" unicode="&#x124;" horiz-adv-x="1247" 
d="M290 1803l193 391h275l199 -391h-245l-89 242l-89 -242h-244zM129 0v1658h367v-670h255v670h367v-1658h-367v726h-255v-726h-367z" />
    <glyph glyph-name="hcircumflex" unicode="&#x125;" horiz-adv-x="1043" 
d="M192 1780l193 391h275l199 -391h-245l-89 242l-89 -242h-244zM106 0v1658h334v-580q126 126 289 126q105 0 161 -77t56 -198v-929h-334v879q0 45 -14 66.5t-52 20.5q-44 0 -106 -43v-923h-334z" />
    <glyph glyph-name="Hbar" unicode="&#x126;" horiz-adv-x="1109" 
d="M445 988h242v270h-242v-270zM78 0v1258h-103v116h103v284h367v-284h242v284h366v-284h82v-116h-82v-1258h-366v726h-242v-726h-367z" />
    <glyph glyph-name="hbar" unicode="&#x127;" horiz-adv-x="1044" 
d="M107 0v1375h-96v154h96v129h334v-129h240v-154h-240v-297q127 126 289 126q105 0 161.5 -77t56.5 -198v-929h-334v879q0 45 -14.5 66.5t-51.5 20.5q-43 0 -107 -43v-923h-334z" />
    <glyph glyph-name="Itilde" unicode="&#x128;" horiz-adv-x="615" 
d="M496 1803h-10q-39 0 -91 21q-59 24 -113 50t-82 26q-57 0 -57 -84h-160v13q0 82 12 136q13 58 52 97t106 44q8 1 17 1q44 0 92 -18q56 -21 101.5 -45.5t63.5 -26.5q6 -1 11 -1q47 0 47 77h148q0 -58 -4.5 -103t-18 -89t-42.5 -69.5t-72 -28.5zM125 0v1658h366v-1658h-366
z" />
    <glyph glyph-name="itilde" unicode="&#x129;" horiz-adv-x="573" 
d="M476 1326h-10q-39 0 -91 21q-59 24 -113 50t-82 26q-57 0 -57 -84h-160v13q0 82 12 136q13 58 52 97t106 44q8 1 17 1q44 0 92 -18q56 -21 101.5 -45.5t63.5 -26.5q6 -1 11 -1q47 0 47 77h148q0 -58 -4.5 -103t-18 -89t-42.5 -69.5t-72 -28.5zM121 0v1184h334v-1184h-334
z" />
    <glyph glyph-name="Imacron" unicode="&#x12a;" horiz-adv-x="615" 
d="M28 1803v157h560v-157h-560zM125 0v1658h366v-1658h-366z" />
    <glyph glyph-name="imacron" unicode="&#x12b;" horiz-adv-x="573" 
d="M8 1326v157h560v-157h-560zM121 0v1184h334v-1184h-334z" />
    <glyph glyph-name="Ibreve" unicode="&#x12c;" horiz-adv-x="615" 
d="M308 1803q-138 0 -214.5 68t-76.5 190h147q0 -63 34 -92t110 -29q75 0 110 29.5t35 91.5h146q0 -122 -76.5 -190t-214.5 -68zM125 0v1658h366v-1658h-366z" />
    <glyph glyph-name="ibreve" unicode="&#x12d;" horiz-adv-x="573" 
d="M288 1326q-138 0 -214.5 68t-76.5 190h147q0 -63 34 -92t110 -29q75 0 110 29.5t35 91.5h146q0 -122 -76.5 -190t-214.5 -68zM121 0v1184h334v-1184h-334z" />
    <glyph glyph-name="Iogonek" unicode="&#x12e;" horiz-adv-x="615" 
d="M457 -514h-36h-36h-13q-31 0 -63 4q-38 5 -74.5 12.5t-68 24.5t-55 39.5t-37 57.5t-13.5 80q0 82 46.5 170t116.5 143h152q-8 -27 -30.5 -80t-36 -98.5t-13.5 -86.5q0 -17 4 -31t10 -24t17 -18t19.5 -13t24.5 -8.5t24.5 -5.5t26.5 -3t24 -1h23.5h19.5zM125 0v1658h366
v-1658h-366z" />
    <glyph glyph-name="iogonek" unicode="&#x12f;" horiz-adv-x="545" 
d="M422 -514h-36h-36h-13q-31 0 -63 4q-38 5 -74.5 12.5t-68 24.5t-55 39.5t-37 57.5t-13.5 80q0 82 46.5 170t116.5 143h152q-8 -27 -30.5 -80t-36 -98.5t-13.5 -86.5q0 -17 4 -31t10 -24t17 -18t19.5 -13t24.5 -8.5t24.5 -5.5t26.5 -3t24 -1h23.5h19.5zM105 1383v235h336
v-235h-336zM107 0v1184h334v-1184h-334z" />
    <glyph glyph-name="Idotaccent" unicode="&#x130;" horiz-adv-x="615" 
d="M150 1803v314h317v-314h-317zM125 0v1658h366v-1658h-366z" />
    <glyph glyph-name="dotlessi" unicode="&#x131;" horiz-adv-x="573" 
d="M121 0v1184h334v-1184h-334z" />
    <glyph glyph-name="ij" unicode="&#x133;" horiz-adv-x="1110" 
d="M674 1383v235h336v-235h-336zM526 -339v239q48 -8 59 -8q91 0 91 100v1192h334v-1232q0 -144 -79.5 -231t-227.5 -87q-86 0 -177 27zM105 1383v235h336v-235h-336zM107 0v1184h334v-1184h-334z" />
    <glyph glyph-name="Jcircumflex" unicode="&#x134;" horiz-adv-x="715" 
d="M70 1800l193 391h275l199 -391h-245l-89 242l-89 -242h-244zM26 -40v255h13q106 -1 145 31q42 34 42 137v1275h366v-1289q-2 -107 -20.5 -179.5t-62 -126t-118.5 -78.5t-187 -25h-178z" />
    <glyph glyph-name="jcircumflex" unicode="&#x135;" horiz-adv-x="551" 
d="M-123 1230l193 391h275l199 -391h-245l-89 242l-89 -242h-244zM-23 -348v240q36 -8 59 -8q90 0 90 99v1201h334v-1241q0 -144 -79 -230.5t-227 -86.5q-83 0 -177 26z" />
    <glyph glyph-name="Kcommaaccent" unicode="&#x136;" horiz-adv-x="1160" 
d="M529 -709l-28 113q66 10 105.5 46t39.5 116h-173v312h315l-1 -268q0 -318 -258 -319zM122 0v1658h366v-674l280 674h357l-307 -749l322 -909h-374l-242 741l-36 -57v-684h-366z" />
    <glyph glyph-name="kcommaaccent" unicode="&#x137;" horiz-adv-x="1104" 
d="M500 -709l-28 113q66 10 105.5 46t39.5 116h-173v312h315l-1 -268q0 -318 -258 -319zM105 1v1658h331v-919l287 444h375l-312 -485l309 -699h-365l-206 562l-88 -111v-450h-331z" />
    <glyph glyph-name="kgreenlandic" unicode="&#x138;" horiz-adv-x="1037" 
d="M102 0v1184h334v-490l227 490h359l-241 -525l246 -659h-352l-184 546l-55 -80v-466h-334z" />
    <glyph glyph-name="Lacute" unicode="&#x139;" horiz-adv-x="906" 
d="M211 1803l126 412h342l-259 -412h-209zM122 0v1658h366v-1410h380v-248h-746z" />
    <glyph glyph-name="lacute" unicode="&#x13a;" horiz-adv-x="561" 
d="M181 1780l126 412h342l-259 -412h-209zM118 0v1658h334v-1658h-334z" />
    <glyph glyph-name="Lcommaaccent" unicode="&#x13b;" horiz-adv-x="906" 
d="M393 -709l-28 113q66 10 105.5 46t39.5 116h-173v312h315l-1 -268q0 -318 -258 -319zM122 0v1658h366v-1410h380v-248h-746z" />
    <glyph glyph-name="lcommaaccent" unicode="&#x13c;" horiz-adv-x="561" 
d="M183 -709l-28 113q66 10 105.5 46t39.5 116h-173v312h315l-1 -268q0 -318 -258 -319zM118 0v1658h334v-1658h-334z" />
    <glyph glyph-name="Lcaron" unicode="&#x13d;" horiz-adv-x="1033" 
d="M741 1067v614h274l-112 -614h-162zM122 0v1658h366v-1410h380v-248h-746z" />
    <glyph glyph-name="lcaron" unicode="&#x13e;" horiz-adv-x="789" 
d="M635 1044v614h274l-112 -614h-162zM118 0v1658h334v-1658h-334z" />
    <glyph glyph-name="Ldot" unicode="&#x13f;" horiz-adv-x="992" 
d="M647 686v309h315v-309h-315zM122 0v1658h366v-1410h380v-248h-746z" />
    <glyph glyph-name="ldot" unicode="&#x140;" horiz-adv-x="1018" 
d="M633 616v309h315v-309h-315zM118 0v1658h334v-1658h-334z" />
    <glyph glyph-name="Lslash" unicode="&#x141;" horiz-adv-x="921" 
d="M138 0v732l-123 -60v204l123 60v722h366v-549l202 97v-203l-202 -97v-658h379v-248h-745z" />
    <glyph glyph-name="lslash" unicode="&#x142;" horiz-adv-x="680" 
d="M176 0v844l-136 -59v189l136 59v625h334v-482l155 67v-189l-155 -67v-987h-334z" />
    <glyph glyph-name="Nacute" unicode="&#x143;" horiz-adv-x="1146" 
d="M469 1803l126 412h342l-259 -412h-209zM122 0v1658h258l341 -796v796h304v-1658h-248l-342 858v-858h-313z" />
    <glyph glyph-name="nacute" unicode="&#x144;" horiz-adv-x="1039" 
d="M419 1326l126 412h342l-259 -412h-209zM104 0v1184h334v-118q141 138 287 138q105 0 161 -77t56 -198v-929h-334v879q0 45 -14 66.5t-52 20.5q-42 0 -104 -41v-925h-334z" />
    <glyph glyph-name="Ncommaaccent" unicode="&#x145;" horiz-adv-x="1146" 
d="M472 -709l-28 113q66 10 105.5 46t39.5 116h-173v312h315l-1 -268q0 -318 -258 -319zM122 0v1658h258l341 -796v796h304v-1658h-248l-342 858v-858h-313z" />
    <glyph glyph-name="ncommaaccent" unicode="&#x146;" horiz-adv-x="1039" 
d="M421 -709l-28 113q66 10 105.5 46t39.5 116h-173v312h315l-1 -268q0 -318 -258 -319zM104 0v1184h334v-118q141 138 287 138q105 0 161 -77t56 -198v-929h-334v879q0 45 -14 66.5t-52 20.5q-42 0 -104 -41v-925h-334z" />
    <glyph glyph-name="Ncaron" unicode="&#x147;" horiz-adv-x="1146" 
d="M410 1803l-177 380h236l102 -223l105 223h237l-182 -380h-321zM122 0v1658h258l341 -796v796h304v-1658h-248l-342 858v-858h-313z" />
    <glyph glyph-name="ncaron" unicode="&#x148;" horiz-adv-x="1039" 
d="M360 1326l-177 380h236l102 -223l105 223h237l-182 -380h-321zM104 0v1184h334v-118q141 138 287 138q105 0 161 -77t56 -198v-929h-334v879q0 45 -14 66.5t-52 20.5q-42 0 -104 -41v-925h-334z" />
    <glyph glyph-name="napostrophe" unicode="&#x149;" horiz-adv-x="1041" 
d="M106 0v1184h334v-118q141 138 287 138q105 0 161 -77t56 -198v-929h-334v879q0 45 -14 66.5t-52 20.5q-42 0 -104 -41v-925h-334zM104 1422v614h274l-112 -614h-162z" />
    <glyph glyph-name="Eng" unicode="&#x14a;" horiz-adv-x="1161" 
d="M502 -429v219h13q128 0 178 38q53 40 53 145v184l-307 701v-858h-310v1658h258l345 -796v796h300v-1658q0 -111 -16.5 -186.5t-58 -132.5t-116.5 -83.5t-189 -26.5h-150z" />
    <glyph glyph-name="eng" unicode="&#x14b;" horiz-adv-x="970" 
d="M362 -400v211q73 0 116 8t69 29.5t34.5 54t8.5 87.5v889q0 45 -14 66.5t-52 20.5q-42 0 -104 -41v-925h-334v1184h334v-104q125 124 286 124q105 0 161.5 -77t56.5 -198v-941q0 -211 -98.5 -299.5t-341.5 -88.5h-122z" />
    <glyph glyph-name="Omacron" unicode="&#x14c;" horiz-adv-x="1198" 
d="M319 1803v157h560v-157h-560zM598 -23q-138 0 -235.5 36.5t-155 109t-83 170.5t-25.5 231v612q0 134 25.5 231.5t83 169.5t155 108t235.5 36q269 0 385.5 -137.5t116.5 -407.5v-612q0 -270 -116.5 -408.5t-385.5 -138.5zM598 236q33 0 57 11.5t37 29t20.5 45.5t9.5 52.5
t2 58.5v795q0 33 -2 57.5t-9.5 52t-20.5 44.5t-37 28.5t-57 11.5t-56.5 -11.5t-36.5 -28t-20 -45t-8.5 -51.5t-1.5 -58v-795q0 -35 1.5 -58.5t8.5 -52t20 -45.5t36.5 -29t56.5 -12z" />
    <glyph glyph-name="omacron" unicode="&#x14d;" horiz-adv-x="989" 
d="M215 1326v157h560v-157h-560zM493 -21q-194 0 -303 100t-109 289v447q0 190 109 289.5t303 99.5t304.5 -100t110.5 -289v-447q0 -189 -110.5 -289t-304.5 -100zM493 203q48 0 66.5 35.5t18.5 106.5v493q0 72 -18.5 107.5t-66.5 35.5q-46 0 -64.5 -36.5t-18.5 -106.5v-493
q0 -69 18.5 -105.5t64.5 -36.5z" />
    <glyph glyph-name="Obreve" unicode="&#x14e;" horiz-adv-x="1198" 
d="M599 1803q-138 0 -214.5 68t-76.5 190h147q0 -63 34 -92t110 -29q75 0 110 29.5t35 91.5h146q0 -122 -76.5 -190t-214.5 -68zM598 -23q-138 0 -235.5 36.5t-155 109t-83 170.5t-25.5 231v612q0 134 25.5 231.5t83 169.5t155 108t235.5 36q269 0 385.5 -137.5
t116.5 -407.5v-612q0 -270 -116.5 -408.5t-385.5 -138.5zM598 236q33 0 57 11.5t37 29t20.5 45.5t9.5 52.5t2 58.5v795q0 33 -2 57.5t-9.5 52t-20.5 44.5t-37 28.5t-57 11.5t-56.5 -11.5t-36.5 -28t-20 -45t-8.5 -51.5t-1.5 -58v-795q0 -35 1.5 -58.5t8.5 -52t20 -45.5
t36.5 -29t56.5 -12z" />
    <glyph glyph-name="obreve" unicode="&#x14f;" horiz-adv-x="989" 
d="M495 1326q-138 0 -214.5 68t-76.5 190h147q0 -63 34 -92t110 -29q75 0 110 29.5t35 91.5h146q0 -122 -76.5 -190t-214.5 -68zM493 -21q-194 0 -303 100t-109 289v447q0 190 109 289.5t303 99.5t304.5 -100t110.5 -289v-447q0 -189 -110.5 -289t-304.5 -100zM493 203
q48 0 66.5 35.5t18.5 106.5v493q0 72 -18.5 107.5t-66.5 35.5q-46 0 -64.5 -36.5t-18.5 -106.5v-493q0 -69 18.5 -105.5t64.5 -36.5z" />
    <glyph glyph-name="Ohungarumlaut" unicode="&#x150;" horiz-adv-x="1198" 
d="M694 1803l131 441h291l-248 -441h-174zM332 1803l119 441h272l-221 -441h-170zM598 -23q-138 0 -235.5 36.5t-155 109t-83 170.5t-25.5 231v612q0 134 25.5 231.5t83 169.5t155 108t235.5 36q269 0 385.5 -137.5t116.5 -407.5v-612q0 -270 -116.5 -408.5t-385.5 -138.5z
M598 236q33 0 57 11.5t37 29t20.5 45.5t9.5 52.5t2 58.5v795q0 33 -2 57.5t-9.5 52t-20.5 44.5t-37 28.5t-57 11.5t-56.5 -11.5t-36.5 -28t-20 -45t-8.5 -51.5t-1.5 -58v-795q0 -35 1.5 -58.5t8.5 -52t20 -45.5t36.5 -29t56.5 -12z" />
    <glyph glyph-name="ohungarumlaut" unicode="&#x151;" horiz-adv-x="989" 
d="M588 1326l131 441h291l-248 -441h-174zM226 1326l119 441h272l-221 -441h-170zM493 -21q-194 0 -303 100t-109 289v447q0 190 109 289.5t303 99.5t304.5 -100t110.5 -289v-447q0 -189 -110.5 -289t-304.5 -100zM493 203q48 0 66.5 35.5t18.5 106.5v493q0 72 -18.5 107.5
t-66.5 35.5q-46 0 -64.5 -36.5t-18.5 -106.5v-493q0 -69 18.5 -105.5t64.5 -36.5z" />
    <glyph glyph-name="OE" unicode="&#x152;" horiz-adv-x="1472" 
d="M607 253h99v1140h-101q-33 0 -57 -10t-39 -31.5t-24 -43.5t-13 -57.5t-5 -60.5t-1 -65v-623q0 -57 4 -93.5t17 -76.5t43 -59.5t77 -19.5zM605 0q-139 0 -238 39t-157 115.5t-84.5 178t-26.5 236.5v495q0 588 501 588h818v-249h-346v-419h256v-256h-256v-480h347v-248
h-814z" />
    <glyph glyph-name="oe" unicode="&#x153;" horiz-adv-x="1448" 
d="M920 746h142v153q0 54 -19.5 90t-52.5 36q-31 0 -50.5 -35t-19.5 -91v-153zM488 184q42 0 63 37.5t21 126.5v537q0 140 -80 140q-78 0 -78 -140v-537q0 -164 74 -164zM436 -25q-156 0 -253.5 98t-97.5 283v514q0 178 99 270t272 92q88 0 171 -40t111 -109
q29 70 110.5 109.5t165.5 39.5q98 0 169 -30t112 -87t59.5 -131t18.5 -171v-244h-453v-202q0 -181 70 -183h2q36 0 52 30t15 97v153h314v-152q1 -162 -91 -251q-89 -87 -256 -87h-7q-107 1 -182.5 39t-106.5 106q-80 -144 -294 -144z" />
    <glyph glyph-name="Racute" unicode="&#x154;" horiz-adv-x="1224" 
d="M533 1803l126 412h342l-259 -412h-209zM488 953h94q112 0 158 58t46 175q0 115 -41.5 170.5t-143.5 55.5h-113v-459zM122 0v1658h452q105 0 186 -12t152 -42t117 -79t72 -126t26 -180q0 -163 -44 -262t-159 -154l228 -803h-379l-182 742h-103v-742h-366z" />
    <glyph glyph-name="racute" unicode="&#x155;" horiz-adv-x="760" 
d="M313 1326l126 412h342l-259 -412h-209zM108 0v1184h334v-197q109 212 237 212q18 0 47 -8v-296q-28 7 -55 7q-137 -7 -229 -143v-759h-334z" />
    <glyph glyph-name="Rcommaaccent" unicode="&#x156;" horiz-adv-x="1224" 
d="M535 -709l-28 113q66 10 105.5 46t39.5 116h-173v312h315l-1 -268q0 -318 -258 -319zM488 953h94q112 0 158 58t46 175q0 115 -41.5 170.5t-143.5 55.5h-113v-459zM122 0v1658h452q105 0 186 -12t152 -42t117 -79t72 -126t26 -180q0 -163 -44 -262t-159 -154l228 -803
h-379l-182 742h-103v-742h-366z" />
    <glyph glyph-name="rcommaaccent" unicode="&#x157;" horiz-adv-x="760" 
d="M315 -709l-28 113q66 10 105.5 46t39.5 116h-173v312h315l-1 -268q0 -318 -258 -319zM108 0v1184h334v-197q109 212 237 212q18 0 47 -8v-296q-28 7 -55 7q-137 -7 -229 -143v-759h-334z" />
    <glyph glyph-name="Rcaron" unicode="&#x158;" horiz-adv-x="1224" 
d="M474 1803l-177 380h236l102 -223l105 223h237l-182 -380h-321zM488 953h94q112 0 158 58t46 175q0 115 -41.5 170.5t-143.5 55.5h-113v-459zM122 0v1658h452q105 0 186 -12t152 -42t117 -79t72 -126t26 -180q0 -163 -44 -262t-159 -154l228 -803h-379l-182 742h-103v-742
h-366z" />
    <glyph glyph-name="rcaron" unicode="&#x159;" horiz-adv-x="760" 
d="M254 1326l-177 380h236l102 -223l105 223h237l-182 -380h-321zM108 0v1184h334v-197q109 212 237 212q18 0 47 -8v-296q-28 7 -55 7q-137 -7 -229 -143v-759h-334z" />
    <glyph glyph-name="Sacute" unicode="&#x15a;" horiz-adv-x="1052" 
d="M437 1803l126 412h342l-259 -412h-209zM562 -23q-236 0 -351.5 125.5t-124.5 400.5l314 48q2 -156 37.5 -226.5t106.5 -70.5q93 0 93 120q0 67 -24 123.5t-59 96.5t-98 94l-147 127q-53 46 -88 84t-68.5 90.5t-49.5 116.5t-16 141q0 207 124 320t340 114q74 0 134.5 -16
t102 -42t73 -65.5t50 -79t31 -89t17 -90.5t6.5 -88l-317 -41q-1 42 -2.5 69.5t-5.5 58.5t-11 50t-18.5 35.5t-29 23.5t-41.5 6q-48 -1 -73.5 -40.5t-25.5 -88.5q0 -47 11.5 -85.5t40 -74.5t46.5 -54t60 -56l141 -124q58 -52 100 -99.5t80 -108t57.5 -133t19.5 -155.5
q0 -180 -120 -298.5t-315 -118.5z" />
    <glyph glyph-name="sacute" unicode="&#x15b;" horiz-adv-x="865" 
d="M329 1326l126 412h342l-259 -412h-209zM451 -21q-151 0 -251 71.5t-161 226.5l231 101q34 -84 80 -130q41 -42 86 -42h10q31 2 52 24.5t20 55.5q-1 17 -12.5 36.5t-43.5 50t-44.5 41.5t-57.5 49l-92 79q-201 170 -201 332q-1 96 51 173q50 76 133 116.5t180 40.5
q145 0 242.5 -79t137.5 -225l-216 -101q-20 67 -58 118t-86 54h-3q-36 1 -56 -19q-22 -20 -23 -50q-4 -48 142 -170q12 -11 18 -16l89 -80q52 -45 78 -70.5t63 -70.5t53.5 -92t16.5 -101q0 -101 -54 -176t-138.5 -111t-185.5 -36z" />
    <glyph glyph-name="Scircumflex" unicode="&#x15c;" horiz-adv-x="1052" 
d="M208 1803l193 391h275l199 -391h-245l-89 242l-89 -242h-244zM562 -23q-236 0 -351.5 125.5t-124.5 400.5l314 48q2 -156 37.5 -226.5t106.5 -70.5q93 0 93 120q0 67 -24 123.5t-59 96.5t-98 94l-147 127q-53 46 -88 84t-68.5 90.5t-49.5 116.5t-16 141q0 207 124 320
t340 114q74 0 134.5 -16t102 -42t73 -65.5t50 -79t31 -89t17 -90.5t6.5 -88l-317 -41q-1 42 -2.5 69.5t-5.5 58.5t-11 50t-18.5 35.5t-29 23.5t-41.5 6q-48 -1 -73.5 -40.5t-25.5 -88.5q0 -47 11.5 -85.5t40 -74.5t46.5 -54t60 -56l141 -124q58 -52 100 -99.5t80 -108
t57.5 -133t19.5 -155.5q0 -180 -120 -298.5t-315 -118.5z" />
    <glyph glyph-name="scircumflex" unicode="&#x15d;" horiz-adv-x="865" 
d="M100 1326l193 391h275l199 -391h-245l-89 242l-89 -242h-244zM451 -21q-151 0 -251 71.5t-161 226.5l231 101q34 -84 80 -130q41 -42 86 -42h10q31 2 52 24.5t20 55.5q-1 17 -12.5 36.5t-43.5 50t-44.5 41.5t-57.5 49l-92 79q-201 170 -201 332q-1 96 51 173
q50 76 133 116.5t180 40.5q145 0 242.5 -79t137.5 -225l-216 -101q-20 67 -58 118t-86 54h-3q-36 1 -56 -19q-22 -20 -23 -50q-4 -48 142 -170q12 -11 18 -16l89 -80q52 -45 78 -70.5t63 -70.5t53.5 -92t16.5 -101q0 -101 -54 -176t-138.5 -111t-185.5 -36z" />
    <glyph glyph-name="Scedilla" unicode="&#x15e;" horiz-adv-x="1052" 
d="M445 -544v145q41 -12 96 -16q12 -1 24 -1q40 0 78 11q48 14 48 49q0 39 -32.5 66.5t-71.5 38.5t-85 14v237h124v-135q118 -5 199 -61q82 -57 82 -149q0 -75 -42 -127q-43 -54 -112 -76q-66 -21 -142 -20h-8q-80 1 -158 24zM562 -23q-236 0 -351.5 125.5t-124.5 400.5
l314 48q2 -156 37.5 -226.5t106.5 -70.5q93 0 93 120q0 67 -24 123.5t-59 96.5t-98 94l-147 127q-53 46 -88 84t-68.5 90.5t-49.5 116.5t-16 141q0 207 124 320t340 114q74 0 134.5 -16t102 -42t73 -65.5t50 -79t31 -89t17 -90.5t6.5 -88l-317 -41q-1 42 -2.5 69.5
t-5.5 58.5t-11 50t-18.5 35.5t-29 23.5t-41.5 6q-48 -1 -73.5 -40.5t-25.5 -88.5q0 -47 11.5 -85.5t40 -74.5t46.5 -54t60 -56l141 -124q58 -52 100 -99.5t80 -108t57.5 -133t19.5 -155.5q0 -180 -120 -298.5t-315 -118.5z" />
    <glyph glyph-name="scedilla" unicode="&#x15f;" horiz-adv-x="865" 
d="M329 -544v145q41 -12 96 -16q12 -1 24 -1q40 0 78 11q48 14 48 49q0 39 -32.5 66.5t-71.5 38.5t-85 14v237h124v-135q118 -5 199 -61q82 -57 82 -149q0 -75 -42 -127q-43 -54 -112 -76q-66 -21 -142 -20h-8q-80 1 -158 24zM451 -21q-151 0 -251 71.5t-161 226.5l231 101
q34 -84 80 -130q41 -42 86 -42h10q31 2 52 24.5t20 55.5q-1 17 -12.5 36.5t-43.5 50t-44.5 41.5t-57.5 49l-92 79q-201 170 -201 332q-1 96 51 173q50 76 133 116.5t180 40.5q145 0 242.5 -79t137.5 -225l-216 -101q-20 67 -58 118t-86 54h-3q-36 1 -56 -19q-22 -20 -23 -50
q-4 -48 142 -170q12 -11 18 -16l89 -80q52 -45 78 -70.5t63 -70.5t53.5 -92t16.5 -101q0 -101 -54 -176t-138.5 -111t-185.5 -36z" />
    <glyph glyph-name="Scaron" unicode="&#x160;" horiz-adv-x="1052" 
d="M378 1803l-177 380h236l102 -223l105 223h237l-182 -380h-321zM562 -23q-236 0 -351.5 125.5t-124.5 400.5l314 48q2 -156 37.5 -226.5t106.5 -70.5q93 0 93 120q0 67 -24 123.5t-59 96.5t-98 94l-147 127q-53 46 -88 84t-68.5 90.5t-49.5 116.5t-16 141q0 207 124 320
t340 114q74 0 134.5 -16t102 -42t73 -65.5t50 -79t31 -89t17 -90.5t6.5 -88l-317 -41q-1 42 -2.5 69.5t-5.5 58.5t-11 50t-18.5 35.5t-29 23.5t-41.5 6q-48 -1 -73.5 -40.5t-25.5 -88.5q0 -47 11.5 -85.5t40 -74.5t46.5 -54t60 -56l141 -124q58 -52 100 -99.5t80 -108
t57.5 -133t19.5 -155.5q0 -180 -120 -298.5t-315 -118.5z" />
    <glyph glyph-name="scaron" unicode="&#x161;" horiz-adv-x="865" 
d="M271 1326l-177 380h236l102 -223l105 223h237l-182 -380h-321zM451 -21q-151 0 -251 71.5t-161 226.5l231 101q34 -84 80 -130q41 -42 86 -42h10q31 2 52 24.5t20 55.5q-1 17 -12.5 36.5t-43.5 50t-44.5 41.5t-57.5 49l-92 79q-201 170 -201 332q-1 96 51 173
q50 76 133 116.5t180 40.5q145 0 242.5 -79t137.5 -225l-216 -101q-20 67 -58 118t-86 54h-3q-36 1 -56 -19q-22 -20 -23 -50q-4 -48 142 -170q12 -11 18 -16l89 -80q52 -45 78 -70.5t63 -70.5t53.5 -92t16.5 -101q0 -101 -54 -176t-138.5 -111t-185.5 -36z" />
    <glyph glyph-name="Tcommaaccent" unicode="&#x162;" horiz-adv-x="914" 
d="M339 -544v145q41 -12 96 -16q12 -1 24 -1q40 0 78 11q48 14 48 49q0 39 -32.5 66.5t-71.5 38.5t-85 14v237h124v-135q118 -5 199 -61q82 -57 82 -149q0 -75 -42 -127q-43 -54 -112 -76q-66 -21 -142 -20h-8q-80 1 -158 24zM275 0v1387h-255v271h874v-271h-252v-1387h-367
z" />
    <glyph glyph-name="tcommaaccent" unicode="&#x163;" horiz-adv-x="724" 
d="M329 -544v145q41 -12 96 -16q12 -1 24 -1q40 0 78 11q48 14 48 49q0 39 -32.5 66.5t-71.5 38.5t-85 14v237h124v-135q118 -5 199 -61q82 -57 82 -149q0 -75 -42 -127q-43 -54 -112 -76q-66 -21 -142 -20h-8q-80 1 -158 24zM440 -14q-55 2 -99.5 15.5t-75.5 34.5t-54 53
t-36.5 66t-21.5 79t-11 86.5t-3 93.5v552h-113v218h113v359h337v-359h170v-218h-170v-612q0 -93 107 -96q13 -1 29.5 0t27 2.5t21 3.5t11.5 2v-263q-107 -18 -198 -18q-17 0 -34 1z" />
    <glyph glyph-name="Tcaron" unicode="&#x164;" horiz-adv-x="914" 
d="M294 1803l-177 380h236l102 -223l105 223h237l-182 -380h-321zM275 0v1387h-255v271h874v-271h-252v-1387h-367z" />
    <glyph glyph-name="tcaron" unicode="&#x165;" horiz-adv-x="765" 
d="M655 1357v614h274l-112 -614h-162zM440 -14q-55 2 -99.5 15.5t-75.5 34.5t-54 53t-36.5 66t-21.5 79t-11 86.5t-3 93.5v552h-113v218h113v359h337v-359h170v-218h-170v-612q0 -93 107 -96q13 -1 29.5 0t27 2.5t21 3.5t11.5 2v-263q-107 -18 -198 -18q-17 0 -34 1z" />
    <glyph glyph-name="Tbar" unicode="&#x166;" horiz-adv-x="914" 
d="M94 756v177h181v454h-255v271h874v-271h-252v-454h187v-177h-187v-756h-367v756h-181z" />
    <glyph glyph-name="tbar" unicode="&#x167;" horiz-adv-x="724" 
d="M440 -14q-55 2 -99.5 15.5t-75.5 34.5t-54 53t-36.5 66t-21.5 79t-11 86.5t-3 93.5v208h-111v145h111v199h-113v218h113v359h337v-359h170v-218h-170v-199h171v-145h-171v-268q0 -93 107 -96q13 -1 29.5 0t27 2.5t21 3.5t11.5 2v-263q-107 -18 -198 -18q-17 0 -34 1z" />
    <glyph glyph-name="Utilde" unicode="&#x168;" horiz-adv-x="1202" 
d="M789 1803h-10q-39 0 -91 21q-59 24 -113 50t-82 26q-57 0 -57 -84h-160v13q0 82 12 136q13 58 52 97t106 44q8 1 17 1q44 0 92 -18q56 -21 101.5 -45.5t63.5 -26.5q6 -1 11 -1q47 0 47 77h148q0 -58 -4.5 -103t-18 -89t-42.5 -69.5t-72 -28.5zM601 -23
q-113 0 -197.5 23.5t-140 66.5t-90 111.5t-48.5 151t-14 192.5v1136h362v-1190q0 -39 2 -66.5t9.5 -59.5t20.5 -52.5t37.5 -34t58.5 -13.5t58 13.5t37 34t20.5 52.5t9.5 60t2 66v1190h363v-1136q0 -138 -23.5 -235t-78.5 -169t-151 -106.5t-237 -34.5z" />
    <glyph glyph-name="utilde" unicode="&#x169;" horiz-adv-x="1030" 
d="M697 1326h-10q-39 0 -91 21q-59 24 -113 50t-82 26q-57 0 -57 -84h-160v13q0 82 12 136q13 58 52 97t106 44q8 1 17 1q44 0 92 -18q56 -21 101.5 -45.5t63.5 -26.5q6 -1 11 -1q47 0 47 77h148q0 -58 -4.5 -103t-18 -89t-42.5 -69.5t-72 -28.5zM311 -20q-105 0 -161 77
t-56 198v929h334v-889q0 -44 15.5 -66.5t52.5 -21.5q40 1 95 36v941h334v-1184h-334v109q-137 -129 -280 -129z" />
    <glyph glyph-name="Umacron" unicode="&#x16a;" horiz-adv-x="1202" 
d="M321 1803v157h560v-157h-560zM601 -23q-113 0 -197.5 23.5t-140 66.5t-90 111.5t-48.5 151t-14 192.5v1136h362v-1190q0 -39 2 -66.5t9.5 -59.5t20.5 -52.5t37.5 -34t58.5 -13.5t58 13.5t37 34t20.5 52.5t9.5 60t2 66v1190h363v-1136q0 -138 -23.5 -235t-78.5 -169
t-151 -106.5t-237 -34.5z" />
    <glyph glyph-name="umacron" unicode="&#x16b;" horiz-adv-x="1030" 
d="M229 1326v157h560v-157h-560zM311 -20q-105 0 -161 77t-56 198v929h334v-889q0 -44 15.5 -66.5t52.5 -21.5q40 1 95 36v941h334v-1184h-334v109q-137 -129 -280 -129z" />
    <glyph glyph-name="Ubreve" unicode="&#x16c;" horiz-adv-x="1202" 
d="M601 1803q-138 0 -214.5 68t-76.5 190h147q0 -63 34 -92t110 -29q75 0 110 29.5t35 91.5h146q0 -122 -76.5 -190t-214.5 -68zM601 -23q-113 0 -197.5 23.5t-140 66.5t-90 111.5t-48.5 151t-14 192.5v1136h362v-1190q0 -39 2 -66.5t9.5 -59.5t20.5 -52.5t37.5 -34
t58.5 -13.5t58 13.5t37 34t20.5 52.5t9.5 60t2 66v1190h363v-1136q0 -138 -23.5 -235t-78.5 -169t-151 -106.5t-237 -34.5z" />
    <glyph glyph-name="ubreve" unicode="&#x16d;" horiz-adv-x="1030" 
d="M509 1326q-138 0 -214.5 68t-76.5 190h147q0 -63 34 -92t110 -29q75 0 110 29.5t35 91.5h146q0 -122 -76.5 -190t-214.5 -68zM311 -20q-105 0 -161 77t-56 198v929h334v-889q0 -44 15.5 -66.5t52.5 -21.5q40 1 95 36v941h334v-1184h-334v109q-137 -129 -280 -129z" />
    <glyph glyph-name="Uring" unicode="&#x16e;" horiz-adv-x="1202" 
d="M600 1922q48 0 75 31t27 78q0 46 -27 77t-75 31t-75 -31t-27 -77q0 -47 27 -78t75 -31zM600 1803q-103 0 -171 60t-68 168q0 107 68 166.5t171 59.5q104 0 173 -60t69 -166q0 -108 -69 -168t-173 -60zM601 -23q-113 0 -197.5 23.5t-140 66.5t-90 111.5t-48.5 151
t-14 192.5v1136h362v-1190q0 -39 2 -66.5t9.5 -59.5t20.5 -52.5t37.5 -34t58.5 -13.5t58 13.5t37 34t20.5 52.5t9.5 60t2 66v1190h363v-1136q0 -138 -23.5 -235t-78.5 -169t-151 -106.5t-237 -34.5z" />
    <glyph glyph-name="uring" unicode="&#x16f;" horiz-adv-x="1030" 
d="M508 1445q48 0 75 31t27 78q0 46 -27 77t-75 31t-75 -31t-27 -77q0 -47 27 -78t75 -31zM508 1326q-103 0 -171 60t-68 168q0 107 68 166.5t171 59.5q104 0 173 -60t69 -166q0 -108 -69 -168t-173 -60zM311 -20q-105 0 -161 77t-56 198v929h334v-889q0 -44 15.5 -66.5
t52.5 -21.5q40 1 95 36v941h334v-1184h-334v109q-137 -129 -280 -129z" />
    <glyph glyph-name="Uhungarumlaut" unicode="&#x170;" horiz-adv-x="1202" 
d="M695 1803l131 441h291l-248 -441h-174zM333 1803l119 441h272l-221 -441h-170zM601 -23q-113 0 -197.5 23.5t-140 66.5t-90 111.5t-48.5 151t-14 192.5v1136h362v-1190q0 -39 2 -66.5t9.5 -59.5t20.5 -52.5t37.5 -34t58.5 -13.5t58 13.5t37 34t20.5 52.5t9.5 60t2 66
v1190h363v-1136q0 -138 -23.5 -235t-78.5 -169t-151 -106.5t-237 -34.5z" />
    <glyph glyph-name="uhungarumlaut" unicode="&#x171;" horiz-adv-x="1030" 
d="M604 1326l131 441h291l-248 -441h-174zM242 1326l119 441h272l-221 -441h-170zM311 -20q-105 0 -161 77t-56 198v929h334v-889q0 -44 15.5 -66.5t52.5 -21.5q40 1 95 36v941h334v-1184h-334v109q-137 -129 -280 -129z" />
    <glyph glyph-name="Uogonek" unicode="&#x172;" horiz-adv-x="1202" 
d="M806 -514h-36h-36h-13q-31 0 -63 4q-38 5 -74.5 12.5t-68 24.5t-55 39.5t-37 57.5t-13.5 80q0 82 46.5 170t116.5 143h152q-8 -27 -30.5 -80t-36 -98.5t-13.5 -86.5q0 -17 4 -31t10 -24t17 -18t19.5 -13t24.5 -8.5t24.5 -5.5t26.5 -3t24 -1h23.5h19.5zM601 -23
q-113 0 -197.5 23.5t-140 66.5t-90 111.5t-48.5 151t-14 192.5v1136h362v-1190q0 -39 2 -66.5t9.5 -59.5t20.5 -52.5t37.5 -34t58.5 -13.5t58 13.5t37 34t20.5 52.5t9.5 60t2 66v1190h363v-1136q0 -138 -23.5 -235t-78.5 -169t-151 -106.5t-237 -34.5z" />
    <glyph glyph-name="uogonek" unicode="&#x173;" horiz-adv-x="1030" 
d="M905 -514h-36h-36h-13q-31 0 -63 4q-38 5 -74.5 12.5t-68 24.5t-55 39.5t-37 57.5t-13.5 80q0 82 46.5 170t116.5 143h152q-8 -27 -30.5 -80t-36 -98.5t-13.5 -86.5q0 -17 4 -31t10 -24t17 -18t19.5 -13t24.5 -8.5t24.5 -5.5t26.5 -3t24 -1h23.5h19.5zM311 -20
q-105 0 -161 77t-56 198v929h334v-889q0 -44 15.5 -66.5t52.5 -21.5q40 1 95 36v941h334v-1184h-334v109q-137 -129 -280 -129z" />
    <glyph glyph-name="Wcircumflex" unicode="&#x174;" horiz-adv-x="1432" 
d="M382 1803l193 391h275l199 -391h-245l-89 242l-89 -242h-244zM257 0l-200 1658h311l98 -963l127 963h242l133 -958l100 958h307l-201 -1658h-318l-141 1000l-136 -1000h-322z" />
    <glyph glyph-name="wcircumflex" unicode="&#x175;" horiz-adv-x="1225" 
d="M278 1326l193 391h275l199 -391h-245l-89 242l-89 -242h-244zM218 0l-175 1184h279l85 -672l94 672h241l81 -687l99 687h259l-179 -1184h-285l-102 663l-113 -663h-284z" />
    <glyph glyph-name="Ycircumflex" unicode="&#x176;" horiz-adv-x="1011" 
d="M172 1803l193 391h275l199 -391h-245l-89 242l-89 -242h-244zM332 0v678l-316 980h345l158 -525l143 525h333l-312 -980v-678h-351z" />
    <glyph glyph-name="ycircumflex" unicode="&#x177;" 
d="M116 1326l193 391h275l199 -391h-245l-89 242l-89 -242h-244zM136 -343v231q110 0 152 22q38 20 38 79q0 7 -1 14q-6 51 -44 186q-11 47 -138 497.5t-138 497.5h315l147 -683l112 683h315l-279 -1248q-62 -279 -423 -279h-10h-46z" />
    <glyph glyph-name="Ydieresis" unicode="&#x178;" horiz-adv-x="1011" 
d="M591 1803v303h269v-303h-269zM150 1803v303h269v-303h-269zM332 0v678l-316 980h345l158 -525l143 525h333l-312 -980v-678h-351z" />
    <glyph glyph-name="Zacute" unicode="&#x179;" horiz-adv-x="885" 
d="M341 1803l126 412h342l-259 -412h-209zM62 0v222l402 1187h-386v249h749v-203l-413 -1207h416v-248h-768z" />
    <glyph glyph-name="zacute" unicode="&#x17a;" horiz-adv-x="801" 
d="M305 1326l126 412h342l-259 -412h-209zM71 0v216l326 724h-301v244h647v-203l-325 -736h330v-245h-677z" />
    <glyph glyph-name="Zdotaccent" unicode="&#x17b;" horiz-adv-x="885" 
d="M288 1803v314h317v-314h-317zM62 0v222l402 1187h-386v249h749v-203l-413 -1207h416v-248h-768z" />
    <glyph glyph-name="zdotaccent" unicode="&#x17c;" horiz-adv-x="801" 
d="M251 1326v314h317v-314h-317zM71 0v216l326 724h-301v244h647v-203l-325 -736h330v-245h-677z" />
    <glyph glyph-name="Zcaron" unicode="&#x17d;" horiz-adv-x="885" 
d="M283 1803l-177 380h236l102 -223l105 223h237l-182 -380h-321zM62 0v222l402 1187h-386v249h749v-203l-413 -1207h416v-248h-768z" />
    <glyph glyph-name="zcaron" unicode="&#x17e;" horiz-adv-x="801" 
d="M246 1326l-177 380h236l102 -223l105 223h237l-182 -380h-321zM71 0v216l326 724h-301v244h647v-203l-325 -736h330v-245h-677z" />
    <glyph glyph-name="florin" unicode="&#x192;" horiz-adv-x="939" 
d="M201 -363q-72 0 -158 10l25 248q60 -9 70 -9q80 0 89 92l101 971h-116v235h141l8 87q6 57 14.5 99t24.5 83.5t42 69.5t63.5 50.5t92 33t124.5 10.5q72 0 158 -10l-25 -248q-60 9 -70 9q-80 0 -89 -91l-10 -93h132v-235h-156l-100 -966q-7 -70 -18.5 -117.5t-35.5 -94
t-62 -74t-99.5 -44t-145.5 -16.5z" />
    <glyph glyph-name="uni01C4" unicode="&#x1c4;" horiz-adv-x="2081" 
d="M1479 1803l-177 380h236l102 -223l105 223h237l-182 -380h-321zM1258 0v222l402 1187h-386v249h749v-203l-413 -1207h416v-248h-768zM122 0v1658h417q163 0 270.5 -29t171.5 -95t90 -161.5t26 -239.5v-598q0 -145 -26.5 -242.5t-90 -165t-170 -97.5t-266.5 -30h-422z
M488 254h56q42 0 71.5 5.5t49 19.5t31 29.5t17 45t7 56t1.5 71.5v713q0 63 -5 97t-23 62t-53.5 38.5t-96.5 10.5h-55v-1148z" />
    <glyph glyph-name="uni01C5" unicode="&#x1c5;" horiz-adv-x="1997" 
d="M1442 1326l-177 380h236l102 -223l105 223h237l-182 -380h-321zM1267 0v216l326 724h-301v244h647v-203l-325 -736h330v-245h-677zM122 0v1658h417q163 0 270.5 -29t171.5 -95t90 -161.5t26 -239.5v-598q0 -145 -26.5 -242.5t-90 -165t-170 -97.5t-266.5 -30h-422z
M488 254h56q42 0 71.5 5.5t49 19.5t31 29.5t17 45t7 56t1.5 71.5v713q0 63 -5 97t-23 62t-53.5 38.5t-96.5 10.5h-55v-1148z" />
    <glyph glyph-name="uni01C6" unicode="&#x1c6;" horiz-adv-x="1832" 
d="M1277 1326l-177 380h236l102 -223l105 223h237l-182 -380h-321zM1102 0v216l326 724h-301v244h647v-203l-325 -736h330v-245h-677zM506 194q35 0 87 29v745q-44 26 -85 26q-44 0 -65 -35.5t-21 -92.5v-540q0 -58 20 -95t64 -37zM362 -21q-134 0 -204.5 93t-70.5 276v481
q0 169 70.5 272t204.5 103q123 0 231 -93v547h334v-1658h-334v90q-113 -110 -231 -111z" />
    <glyph glyph-name="uni01C7" unicode="&#x1c7;" horiz-adv-x="1621" 
d="M932 -40v255h13q106 -1 145 31q42 34 42 137v1275h366v-1289q-2 -107 -20.5 -179.5t-62 -126t-118.5 -78.5t-187 -25h-178zM122 0v1658h366v-1410h380v-248h-746z" />
    <glyph glyph-name="uni01C8" unicode="&#x1c8;" horiz-adv-x="1471" 
d="M1035 1383v235h336v-235h-336zM887 -339v239q48 -8 59 -8q91 0 91 100v1192h334v-1232q0 -144 -79.5 -231t-227.5 -87q-86 0 -177 27zM122 0v1658h366v-1410h380v-248h-746z" />
    <glyph glyph-name="uni01C9" unicode="&#x1c9;" horiz-adv-x="1126" 
d="M690 1383v235h336v-235h-336zM542 -339v239q48 -8 59 -8q91 0 91 100v1192h334v-1232q0 -144 -79.5 -231t-227.5 -87q-86 0 -177 27zM118 0v1658h334v-1658h-334z" />
    <glyph glyph-name="uni01CA" unicode="&#x1ca;" horiz-adv-x="1861" 
d="M1172 -40v255h13q106 -1 145 31q42 34 42 137v1275h366v-1289q-2 -107 -20.5 -179.5t-62 -126t-118.5 -78.5t-187 -25h-178zM122 0v1658h258l341 -796v796h304v-1658h-248l-342 858v-858h-313z" />
    <glyph glyph-name="uni01CB" unicode="&#x1cb;" horiz-adv-x="1711" 
d="M1275 1383v235h336v-235h-336zM1127 -339v239q48 -8 59 -8q91 0 91 100v1192h334v-1232q0 -144 -79.5 -231t-227.5 -87q-86 0 -177 27zM122 0v1658h258l341 -796v796h304v-1658h-248l-342 858v-858h-313z" />
    <glyph glyph-name="uni01CC" unicode="&#x1cc;" horiz-adv-x="1604" 
d="M1168 1383v235h336v-235h-336zM1020 -339v239q48 -8 59 -8q91 0 91 100v1192h334v-1232q0 -144 -79.5 -231t-227.5 -87q-86 0 -177 27zM104 0v1184h334v-118q141 138 287 138q105 0 161 -77t56 -198v-929h-334v879q0 45 -14 66.5t-52 20.5q-42 0 -104 -41v-925h-334z" />
    <glyph glyph-name="uni01F1" unicode="&#x1f1;" horiz-adv-x="2081" 
d="M1258 0v222l402 1187h-386v249h749v-203l-413 -1207h416v-248h-768zM122 0v1658h417q163 0 270.5 -29t171.5 -95t90 -161.5t26 -239.5v-598q0 -145 -26.5 -242.5t-90 -165t-170 -97.5t-266.5 -30h-422zM488 254h56q42 0 71.5 5.5t49 19.5t31 29.5t17 45t7 56t1.5 71.5
v713q0 63 -5 97t-23 62t-53.5 38.5t-96.5 10.5h-55v-1148z" />
    <glyph glyph-name="uni01F2" unicode="&#x1f2;" horiz-adv-x="1997" 
d="M1267 0v216l326 724h-301v244h647v-203l-325 -736h330v-245h-677zM122 0v1658h417q163 0 270.5 -29t171.5 -95t90 -161.5t26 -239.5v-598q0 -145 -26.5 -242.5t-90 -165t-170 -97.5t-266.5 -30h-422zM488 254h56q42 0 71.5 5.5t49 19.5t31 29.5t17 45t7 56t1.5 71.5v713
q0 63 -5 97t-23 62t-53.5 38.5t-96.5 10.5h-55v-1148z" />
    <glyph glyph-name="uni01F3" unicode="&#x1f3;" horiz-adv-x="1832" 
d="M1102 0v216l326 724h-301v244h647v-203l-325 -736h330v-245h-677zM506 194q35 0 87 29v745q-44 26 -85 26q-44 0 -65 -35.5t-21 -92.5v-540q0 -58 20 -95t64 -37zM362 -21q-134 0 -204.5 93t-70.5 276v481q0 169 70.5 272t204.5 103q123 0 231 -93v547h334v-1658h-334v90
q-113 -110 -231 -111z" />
    <glyph glyph-name="uni01F4" unicode="&#x1f4;" horiz-adv-x="1190" 
d="M488 1803l126 412h342l-259 -412h-209zM555 -24q-126 0 -215.5 40.5t-141.5 118.5t-75.5 180t-23.5 236v551q0 110 15.5 197t51 160t92.5 121t142 74.5t197 26.5q108 0 191 -23t138.5 -64t90.5 -102.5t50 -134t15 -162.5v-105h-358v133q0 38 -1.5 62t-8 53t-19 45
t-36 27.5t-57.5 11.5q-35 0 -59.5 -13t-37.5 -31.5t-20.5 -49.5t-9 -56.5t-1.5 -62.5v-759q0 -99 29.5 -156.5t107.5 -57.5q144 0 144 221v186h-150v219h481v-862h-243l-21 139q-73 -163 -267 -163z" />
    <glyph glyph-name="uni01F5" unicode="&#x1f5;" horiz-adv-x="1022" 
d="M446 1377l126 412h342l-259 -412h-209zM506 566q57 0 74 47.5t17 170.5q0 129 -15.5 174.5t-76.5 45.5q-21 0 -36 -5.5t-25 -20.5t-15.5 -29.5t-8 -44.5t-3 -53t-0.5 -67q0 -59 3 -94.5t11.5 -66t27 -44t47.5 -13.5zM549 -146q82 0 120 17t42 57q1 10 1 20q0 38 -22 56
q-28 24 -102 31l-179 22q-47 -69 -47 -117q0 -45 41.5 -65.5t145.5 -20.5zM550 -355q-48 0 -87.5 1.5t-93 6.5t-95.5 14t-85.5 26t-72 40.5t-47 58.5t-18.5 78q0 118 169 235q-74 27 -108 59t-40 74q-3 16 -3 32q0 48 28 87q37 52 119 117q-129 94 -129 294
q0 221 107.5 328.5t304.5 107.5q189 0 270 -103q75 88 160 132l44 22l77 -163q-30 -9 -95 -38t-103 -52q59 -90 59 -232q0 -191 -96.5 -297.5t-292.5 -106.5q-47 0 -101.5 10.5t-87.5 24.5q-36 -47 -36 -74q0 -4 1 -8q4 -30 109 -45q28 -5 127 -17.5t130 -16.5
q171 -23 240.5 -90.5t69.5 -194.5q0 -72 -21 -126.5t-69 -97t-132 -64.5t-202 -22z" />
    <glyph glyph-name="uni0200" unicode="&#x200;" horiz-adv-x="1127" 
d="M652 1803l-185 422h243l121 -422h-179zM296 1803l-208 422h258l130 -422h-180zM478 571h177l-89 642zM43 0l314 1658h414l312 -1658h-338l-57 352h-242l-56 -352h-347z" />
    <glyph glyph-name="uni0201" unicode="&#x201;" horiz-adv-x="976" 
d="M576 1326l-185 422h243l121 -422h-179zM220 1326l-208 422h258l130 -422h-180zM469 209q24 0 49.5 16.5t41.5 39.5v324q-80 -40 -131.5 -112.5t-51.5 -141.5q0 -58 26 -92t66 -34zM348 -21q-126 2 -200.5 89.5t-74.5 199.5q0 58 14.5 108.5t35 87.5t57.5 72t67 56.5
t79.5 46t79.5 36.5t81.5 31.5t72.5 28.5v117q0 50 -15 77t-55 27q-68 0 -72 -94l-8 -87l-312 12q0 3 1 20t1 19q15 194 120.5 286t301.5 92q175 0 266.5 -97t91.5 -259v-551q0 -114 21 -297h-297q-26 144 -28 168q-24 -81 -82 -135t-146 -54z" />
    <glyph glyph-name="uni0202" unicode="&#x202;" horiz-adv-x="1127" 
d="M299 1803q0 122 68.5 190t195.5 68q126 0 194.5 -67.5t68.5 -190.5h-146q0 64 -26.5 93t-90.5 29t-91 -29t-27 -93h-146zM478 571h177l-89 642zM43 0l314 1658h414l312 -1658h-338l-57 352h-242l-56 -352h-347z" />
    <glyph glyph-name="uni0203" unicode="&#x203;" horiz-adv-x="976" 
d="M223 1326q0 122 68.5 190t195.5 68q126 0 194.5 -67.5t68.5 -190.5h-146q0 64 -26.5 93t-90.5 29t-91 -29t-27 -93h-146zM469 209q24 0 49.5 16.5t41.5 39.5v324q-80 -40 -131.5 -112.5t-51.5 -141.5q0 -58 26 -92t66 -34zM348 -21q-126 2 -200.5 89.5t-74.5 199.5
q0 58 14.5 108.5t35 87.5t57.5 72t67 56.5t79.5 46t79.5 36.5t81.5 31.5t72.5 28.5v117q0 50 -15 77t-55 27q-68 0 -72 -94l-8 -87l-312 12q0 3 1 20t1 19q15 194 120.5 286t301.5 92q175 0 266.5 -97t91.5 -259v-551q0 -114 21 -297h-297q-26 144 -28 168q-24 -81 -82 -135
t-146 -54z" />
    <glyph glyph-name="uni0204" unicode="&#x204;" 
d="M585 1803l-185 422h243l121 -422h-179zM229 1803l-208 422h258l130 -422h-180zM122 0v1658h745v-250h-379v-410h289v-255h-289v-495h383v-248h-749z" />
    <glyph glyph-name="uni0205" unicode="&#x205;" horiz-adv-x="962" 
d="M572 1326l-185 422h243l121 -422h-179zM216 1326l-208 422h258l130 -422h-180zM412 727h163v118q0 66 -22 93.5t-63 27.5q-39 0 -58.5 -32t-19.5 -109v-98zM491 -21q-196 0 -303 105t-107 296v424q0 191 107.5 295.5t302.5 104.5q197 0 295.5 -101.5t98.5 -298.5v-233
h-473v-208q0 -72 18 -108.5t61 -36.5q84 0 84 115v79h310v-69q0 -177 -103.5 -270.5t-290.5 -93.5z" />
    <glyph glyph-name="uni0206" unicode="&#x206;" 
d="M233 1803q0 122 68.5 190t195.5 68q126 0 194.5 -67.5t68.5 -190.5h-146q0 64 -26.5 93t-90.5 29t-91 -29t-27 -93h-146zM122 0v1658h745v-250h-379v-410h289v-255h-289v-495h383v-248h-749z" />
    <glyph glyph-name="uni0207" unicode="&#x207;" horiz-adv-x="962" 
d="M219 1326q0 122 68.5 190t195.5 68q126 0 194.5 -67.5t68.5 -190.5h-146q0 64 -26.5 93t-90.5 29t-91 -29t-27 -93h-146zM412 727h163v118q0 66 -22 93.5t-63 27.5q-39 0 -58.5 -32t-19.5 -109v-98zM491 -21q-196 0 -303 105t-107 296v424q0 191 107.5 295.5t302.5 104.5
q197 0 295.5 -101.5t98.5 -298.5v-233h-473v-208q0 -72 18 -108.5t61 -36.5q84 0 84 115v79h310v-69q0 -177 -103.5 -270.5t-290.5 -93.5z" />
    <glyph glyph-name="uni0208" unicode="&#x208;" horiz-adv-x="615" 
d="M396 1803l-185 422h243l121 -422h-179zM40 1803l-208 422h258l130 -422h-180zM125 0v1658h366v-1658h-366z" />
    <glyph glyph-name="uni0209" unicode="&#x209;" horiz-adv-x="573" 
d="M376 1326l-185 422h243l121 -422h-179zM20 1326l-208 422h258l130 -422h-180zM121 0v1184h334v-1184h-334z" />
    <glyph glyph-name="uni020A" unicode="&#x20a;" horiz-adv-x="615" 
d="M45 1803q0 122 68.5 190t195.5 68q126 0 194.5 -67.5t68.5 -190.5h-146q0 64 -26.5 93t-90.5 29t-91 -29t-27 -93h-146zM125 0v1658h366v-1658h-366z" />
    <glyph glyph-name="uni020B" unicode="&#x20b;" horiz-adv-x="573" 
d="M25 1326q0 122 68.5 190t195.5 68q126 0 194.5 -67.5t68.5 -190.5h-146q0 64 -26.5 93t-90.5 29t-91 -29t-27 -93h-146zM121 0v1184h334v-1184h-334z" />
    <glyph glyph-name="uni020C" unicode="&#x20c;" horiz-adv-x="1198" 
d="M688 1803l-185 422h243l121 -422h-179zM332 1803l-208 422h258l130 -422h-180zM598 -23q-138 0 -235.5 36.5t-155 109t-83 170.5t-25.5 231v612q0 134 25.5 231.5t83 169.5t155 108t235.5 36q269 0 385.5 -137.5t116.5 -407.5v-612q0 -270 -116.5 -408.5t-385.5 -138.5z
M598 236q33 0 57 11.5t37 29t20.5 45.5t9.5 52.5t2 58.5v795q0 33 -2 57.5t-9.5 52t-20.5 44.5t-37 28.5t-57 11.5t-56.5 -11.5t-36.5 -28t-20 -45t-8.5 -51.5t-1.5 -58v-795q0 -35 1.5 -58.5t8.5 -52t20 -45.5t36.5 -29t56.5 -12z" />
    <glyph glyph-name="uni020D" unicode="&#x20d;" horiz-adv-x="989" 
d="M583 1326l-185 422h243l121 -422h-179zM227 1326l-208 422h258l130 -422h-180zM493 -21q-194 0 -303 100t-109 289v447q0 190 109 289.5t303 99.5t304.5 -100t110.5 -289v-447q0 -189 -110.5 -289t-304.5 -100zM493 203q48 0 66.5 35.5t18.5 106.5v493q0 72 -18.5 107.5
t-66.5 35.5q-46 0 -64.5 -36.5t-18.5 -106.5v-493q0 -69 18.5 -105.5t64.5 -36.5z" />
    <glyph glyph-name="uni020E" unicode="&#x20e;" horiz-adv-x="1198" 
d="M336 1803q0 122 68.5 190t195.5 68q126 0 194.5 -67.5t68.5 -190.5h-146q0 64 -26.5 93t-90.5 29t-91 -29t-27 -93h-146zM598 -23q-138 0 -235.5 36.5t-155 109t-83 170.5t-25.5 231v612q0 134 25.5 231.5t83 169.5t155 108t235.5 36q269 0 385.5 -137.5t116.5 -407.5
v-612q0 -270 -116.5 -408.5t-385.5 -138.5zM598 236q33 0 57 11.5t37 29t20.5 45.5t9.5 52.5t2 58.5v795q0 33 -2 57.5t-9.5 52t-20.5 44.5t-37 28.5t-57 11.5t-56.5 -11.5t-36.5 -28t-20 -45t-8.5 -51.5t-1.5 -58v-795q0 -35 1.5 -58.5t8.5 -52t20 -45.5t36.5 -29t56.5 -12
z" />
    <glyph glyph-name="uni020F" unicode="&#x20f;" horiz-adv-x="989" 
d="M231 1326q0 122 68.5 190t195.5 68q126 0 194.5 -67.5t68.5 -190.5h-146q0 64 -26.5 93t-90.5 29t-91 -29t-27 -93h-146zM493 -21q-194 0 -303 100t-109 289v447q0 190 109 289.5t303 99.5t304.5 -100t110.5 -289v-447q0 -189 -110.5 -289t-304.5 -100zM493 203
q48 0 66.5 35.5t18.5 106.5v493q0 72 -18.5 107.5t-66.5 35.5q-46 0 -64.5 -36.5t-18.5 -106.5v-493q0 -69 18.5 -105.5t64.5 -36.5z" />
    <glyph glyph-name="uni0210" unicode="&#x210;" horiz-adv-x="1224" 
d="M726 1803l-185 422h243l121 -422h-179zM370 1803l-208 422h258l130 -422h-180zM488 953h94q112 0 158 58t46 175q0 115 -41.5 170.5t-143.5 55.5h-113v-459zM122 0v1658h452q105 0 186 -12t152 -42t117 -79t72 -126t26 -180q0 -163 -44 -262t-159 -154l228 -803h-379
l-182 742h-103v-742h-366z" />
    <glyph glyph-name="uni0211" unicode="&#x211;" horiz-adv-x="760" 
d="M506 1326l-185 422h243l121 -422h-179zM150 1326l-208 422h258l130 -422h-180zM108 0v1184h334v-197q109 212 237 212q18 0 47 -8v-296q-28 7 -55 7q-137 -7 -229 -143v-759h-334z" />
    <glyph glyph-name="uni0212" unicode="&#x212;" horiz-adv-x="1224" 
d="M373 1803q0 122 68.5 190t195.5 68q126 0 194.5 -67.5t68.5 -190.5h-146q0 64 -26.5 93t-90.5 29t-91 -29t-27 -93h-146zM488 953h94q112 0 158 58t46 175q0 115 -41.5 170.5t-143.5 55.5h-113v-459zM122 0v1658h452q105 0 186 -12t152 -42t117 -79t72 -126t26 -180
q0 -163 -44 -262t-159 -154l228 -803h-379l-182 742h-103v-742h-366z" />
    <glyph glyph-name="uni0213" unicode="&#x213;" horiz-adv-x="760" 
d="M153 1326q0 122 68.5 190t195.5 68q126 0 194.5 -67.5t68.5 -190.5h-146q0 64 -26.5 93t-90.5 29t-91 -29t-27 -93h-146zM108 0v1184h334v-197q109 212 237 212q18 0 47 -8v-296q-28 7 -55 7q-137 -7 -229 -143v-759h-334z" />
    <glyph glyph-name="uni0214" unicode="&#x214;" horiz-adv-x="1202" 
d="M690 1803l-185 422h243l121 -422h-179zM334 1803l-208 422h258l130 -422h-180zM601 -23q-113 0 -197.5 23.5t-140 66.5t-90 111.5t-48.5 151t-14 192.5v1136h362v-1190q0 -39 2 -66.5t9.5 -59.5t20.5 -52.5t37.5 -34t58.5 -13.5t58 13.5t37 34t20.5 52.5t9.5 60t2 66
v1190h363v-1136q0 -138 -23.5 -235t-78.5 -169t-151 -106.5t-237 -34.5z" />
    <glyph glyph-name="uni0215" unicode="&#x215;" horiz-adv-x="1030" 
d="M598 1326l-185 422h243l121 -422h-179zM242 1326l-208 422h258l130 -422h-180zM311 -20q-105 0 -161 77t-56 198v929h334v-889q0 -44 15.5 -66.5t52.5 -21.5q40 1 95 36v941h334v-1184h-334v109q-137 -129 -280 -129z" />
    <glyph glyph-name="uni0216" unicode="&#x216;" horiz-adv-x="1202" 
d="M337 1803q0 122 68.5 190t195.5 68q126 0 194.5 -67.5t68.5 -190.5h-146q0 64 -26.5 93t-90.5 29t-91 -29t-27 -93h-146zM601 -23q-113 0 -197.5 23.5t-140 66.5t-90 111.5t-48.5 151t-14 192.5v1136h362v-1190q0 -39 2 -66.5t9.5 -59.5t20.5 -52.5t37.5 -34t58.5 -13.5
t58 13.5t37 34t20.5 52.5t9.5 60t2 66v1190h363v-1136q0 -138 -23.5 -235t-78.5 -169t-151 -106.5t-237 -34.5z" />
    <glyph glyph-name="uni0217" unicode="&#x217;" horiz-adv-x="1030" 
d="M246 1326q0 122 68.5 190t195.5 68q126 0 194.5 -67.5t68.5 -190.5h-146q0 64 -26.5 93t-90.5 29t-91 -29t-27 -93h-146zM311 -20q-105 0 -161 77t-56 198v929h334v-889q0 -44 15.5 -66.5t52.5 -21.5q40 1 95 36v941h334v-1184h-334v109q-137 -129 -280 -129z" />
    <glyph glyph-name="Scommaaccent" unicode="&#x218;" horiz-adv-x="1052" 
d="M440 -732l-28 113q66 10 105.5 46t39.5 116h-173v312h315l-1 -268q0 -318 -258 -319zM562 -23q-236 0 -351.5 125.5t-124.5 400.5l314 48q2 -156 37.5 -226.5t106.5 -70.5q93 0 93 120q0 67 -24 123.5t-59 96.5t-98 94l-147 127q-53 46 -88 84t-68.5 90.5t-49.5 116.5
t-16 141q0 207 124 320t340 114q74 0 134.5 -16t102 -42t73 -65.5t50 -79t31 -89t17 -90.5t6.5 -88l-317 -41q-1 42 -2.5 69.5t-5.5 58.5t-11 50t-18.5 35.5t-29 23.5t-41.5 6q-48 -1 -73.5 -40.5t-25.5 -88.5q0 -47 11.5 -85.5t40 -74.5t46.5 -54t60 -56l141 -124
q58 -52 100 -99.5t80 -108t57.5 -133t19.5 -155.5q0 -180 -120 -298.5t-315 -118.5z" />
    <glyph glyph-name="scommaaccent" unicode="&#x219;" horiz-adv-x="865" 
d="M333 -730l-28 113q66 10 105.5 46t39.5 116h-173v312h315l-1 -268q0 -318 -258 -319zM451 -21q-151 0 -251 71.5t-161 226.5l231 101q34 -84 80 -130q41 -42 86 -42h10q31 2 52 24.5t20 55.5q-1 17 -12.5 36.5t-43.5 50t-44.5 41.5t-57.5 49l-92 79q-201 170 -201 332
q-1 96 51 173q50 76 133 116.5t180 40.5q145 0 242.5 -79t137.5 -225l-216 -101q-20 67 -58 118t-86 54h-3q-36 1 -56 -19q-22 -20 -23 -50q-4 -48 142 -170q12 -11 18 -16l89 -80q52 -45 78 -70.5t63 -70.5t53.5 -92t16.5 -101q0 -101 -54 -176t-138.5 -111t-185.5 -36z
" />
    <glyph glyph-name="uni021A" unicode="&#x21a;" horiz-adv-x="914" 
d="M355 -709l-28 113q66 10 105.5 46t39.5 116h-173v312h315l-1 -268q0 -318 -258 -319zM275 0v1387h-255v271h874v-271h-252v-1387h-367z" />
    <glyph glyph-name="uni021B" unicode="&#x21b;" horiz-adv-x="724" 
d="M247 -724l-28 113q66 10 105.5 46t39.5 116h-173v312h315l-1 -268q0 -318 -258 -319zM440 -14q-55 2 -99.5 15.5t-75.5 34.5t-54 53t-36.5 66t-21.5 79t-11 86.5t-3 93.5v552h-113v218h113v359h337v-359h170v-218h-170v-612q0 -93 107 -96q13 -1 29.5 0t27 2.5t21 3.5
t11.5 2v-263q-107 -18 -198 -18q-17 0 -34 1z" />
    <glyph glyph-name="uni0237" unicode="&#x237;" horiz-adv-x="551" 
d="M-23 -348v240q36 -8 59 -8q90 0 90 99v1201h334v-1241q0 -144 -79 -230.5t-227 -86.5q-83 0 -177 26z" />
    <glyph glyph-name="afii57929" unicode="&#x2bc;" horiz-adv-x="791" 
d="M263 1044v614h274l-112 -614h-162z" />
    <glyph glyph-name="circumflex" unicode="&#x2c6;" horiz-adv-x="829" 
d="M90 1258l193 400h275l199 -400h-245l-89 251l-89 -251h-244z" />
    <glyph glyph-name="caron" unicode="&#x2c7;" horiz-adv-x="823" 
d="M248 1278l-177 380h236l102 -223l105 223h237l-182 -380h-321z" />
    <glyph glyph-name="breve" unicode="&#x2d8;" horiz-adv-x="667" 
d="M319 1400q-126 0 -194.5 68t-68.5 190h146q0 -64 26.5 -92.5t90.5 -28.5t91 29t27 92h146q0 -122 -68.5 -190t-195.5 -68z" />
    <glyph glyph-name="dotaccent" unicode="&#x2d9;" horiz-adv-x="526" 
d="M-158 122v314h317v-314h-317z" />
    <glyph glyph-name="ring" unicode="&#x2da;" horiz-adv-x="165" 
d="M76 1347q48 0 75 31t27 78q0 46 -27 77t-75 31t-75 -31t-27 -77q0 -47 27 -78t75 -31zM76 1228q-103 0 -171 60t-68 168q0 107 68 166.5t171 59.5q104 0 173 -60t69 -166q0 -108 -69 -168t-173 -60z" />
    <glyph glyph-name="ogonek" unicode="&#x2db;" horiz-adv-x="540" 
d="M416 -514h-36h-36h-13q-31 0 -63 4q-38 5 -74.5 12.5t-68 24.5t-55 39.5t-37 57.5t-13.5 80q0 82 46.5 170t116.5 143h152q-8 -27 -30.5 -80t-36 -98.5t-13.5 -86.5q0 -17 4 -31t10 -24t17 -18t19.5 -13t24.5 -8.5t24.5 -5.5t26.5 -3t24 -1h23.5h19.5z" />
    <glyph glyph-name="tilde" unicode="&#x2dc;" horiz-adv-x="873" 
d="M632 1368h-10q-39 0 -91 21q-59 24 -113 50t-82 26q-57 0 -57 -84h-160v13q0 82 12 136q13 58 52 97t106 44q8 1 17 1q44 0 92 -18q56 -21 101.5 -45.5t63.5 -26.5q6 -1 11 -1q47 0 47 77h148q0 -58 -4.5 -103t-18 -89t-42.5 -69.5t-72 -28.5z" />
    <glyph glyph-name="hungarumlaut" unicode="&#x2dd;" horiz-adv-x="897" 
d="M460 1217l131 441h291l-248 -441h-174zM98 1217l119 441h272l-221 -441h-170z" />
    <glyph glyph-name="gravecomb" unicode="&#x300;" horiz-adv-x="468" 
d="M282 1246l-259 412h343l124 -412h-208z" />
    <glyph glyph-name="acutecomb" unicode="&#x301;" horiz-adv-x="468" 
d="M61 1246l126 412h342l-259 -412h-209z" />
    <glyph glyph-name="uni0302" unicode="&#x302;" horiz-adv-x="829" 
d="M90 1267l193 391h275l199 -391h-245l-89 242l-89 -242h-244z" />
    <glyph glyph-name="tildecomb" unicode="&#x303;" horiz-adv-x="873" 
d="M632 1368h-10q-39 0 -91 21q-59 24 -113 50t-82 26q-57 0 -57 -84h-160v13q0 82 12 136q13 58 52 97t106 44q8 1 17 1q44 0 92 -18q56 -21 101.5 -45.5t63.5 -26.5q6 -1 11 -1q47 0 47 77h148q0 -58 -4.5 -103t-18 -89t-42.5 -69.5t-72 -28.5z" />
    <glyph glyph-name="uni0304" unicode="&#x304;" horiz-adv-x="366" 
d="M-87 1501v157h560v-157h-560z" />
    <glyph glyph-name="uni0306" unicode="&#x306;" horiz-adv-x="667" 
d="M319 1400q-138 0 -214.5 68t-76.5 190h147q0 -63 34 -92t110 -29q75 0 110 29.5t35 91.5h146q0 -122 -76.5 -190t-214.5 -68z" />
    <glyph glyph-name="uni0307" unicode="&#x307;" horiz-adv-x="374" 
d="M36 1344v314h317v-314h-317z" />
    <glyph glyph-name="uni0308" unicode="&#x308;" horiz-adv-x="870" 
d="M521 1355v303h269v-303h-269zM80 1355v303h269v-303h-269z" />
    <glyph glyph-name="uni030A" unicode="&#x30a;" horiz-adv-x="165" 
d="M76 1347q48 0 75 31t27 78q0 46 -27 77t-75 31t-75 -31t-27 -77q0 -47 27 -78t75 -31zM76 1228q-103 0 -171 60t-68 168q0 107 68 166.5t171 59.5q104 0 173 -60t69 -166q0 -108 -69 -168t-173 -60z" />
    <glyph glyph-name="uni030C" unicode="&#x30c;" horiz-adv-x="625" 
d="M174 1278l-177 380h236l102 -223l105 223h237l-182 -380h-321z" />
    <glyph glyph-name="uni030F" unicode="&#x30f;" horiz-adv-x="893" 
d="M632 1275l-185 422h243l121 -422h-179zM276 1275l-208 422h258l130 -422h-180z" />
    <glyph glyph-name="uni0311" unicode="&#x311;" horiz-adv-x="667" 
d="M55 1400q0 122 68.5 190t195.5 68q126 0 194.5 -67.5t68.5 -190.5h-146q0 64 -26.5 93t-90.5 29t-91 -29t-27 -93h-146z" />
    <glyph glyph-name="uni0326" unicode="&#x326;" horiz-adv-x="414" 
d="M99 -656l-28 113q66 10 105.5 46t39.5 116h-173v312h315l-1 -268q0 -318 -258 -319z" />
    <glyph glyph-name="Pi" unicode="&#x3a0;" horiz-adv-x="1248" 
d="M106 0v1658h1036v-1658h-325v1395h-386v-1395h-325z" />
    <glyph glyph-name="pi" unicode="&#x3c0;" horiz-adv-x="1211" 
d="M501 965v-965h-334v965h-127v219h1106v-219h-141v-543q0 -59 2 -90t8.5 -58t21.5 -38t37.5 -16.5t60.5 -5.5l-14 -234q-110 0 -188.5 12.5t-129 36t-80 62.5t-41 85.5t-11.5 111.5v677h-170z" />
    <glyph glyph-name="uni0400" unicode="&#x400;" 
d="M392 1803l-259 412h343l124 -412h-208zM122 0v1658h745v-250h-379v-410h289v-255h-289v-495h383v-248h-749z" />
    <glyph glyph-name="afii10023" unicode="&#x401;" 
d="M583 1803v303h269v-303h-269zM142 1803v303h269v-303h-269zM122 0v1658h745v-250h-379v-410h289v-255h-289v-495h383v-248h-749z" />
    <glyph glyph-name="afii10051" unicode="&#x402;" horiz-adv-x="1288" 
d="M689 0v211q96 0 140.5 47t44.5 152v258q0 46 -33 85.5t-95 39.5q-70 0 -163 -61v-732h-361v1402h-234v256h880v-256h-285v-489q119 90 273 90q69 0 132.5 -20.5t112.5 -58t78 -95t29 -125.5v-295q0 -225 -99 -317t-343 -92h-77z" />
    <glyph glyph-name="afii10052" unicode="&#x403;" horiz-adv-x="944" 
d="M407 1803l126 412h342l-259 -412h-209zM129 0v1658h764v-271h-397v-1387h-367z" />
    <glyph glyph-name="afii10053" unicode="&#x404;" horiz-adv-x="1132" 
d="M597 -23q-139 0 -237 38.5t-154.5 113.5t-81.5 173t-25 230v591q0 135 25 234.5t81.5 174t154 112t237.5 37.5q134 0 228.5 -34t148 -100t77 -150t23.5 -195v-98h-358v119q0 39 -1 59t-7 51.5t-17.5 47.5t-35.5 28.5t-58 12.5t-58 -12.5t-36.5 -30t-20 -48t-9 -55.5
t-1.5 -62v-278h268v-200h-268v-295q0 -100 26 -152.5t99 -52.5q33 0 56.5 12.5t35.5 29.5t18.5 48t7.5 54t1 61v112h358v-81q0 -89 -14 -161t-47.5 -135.5t-87 -106.5t-136.5 -67.5t-192 -24.5z" />
    <glyph glyph-name="afii10054" unicode="&#x405;" horiz-adv-x="1052" 
d="M562 -23q-236 0 -351.5 125.5t-124.5 400.5l314 48q2 -156 37.5 -226.5t106.5 -70.5q93 0 93 120q0 67 -24 123.5t-59 96.5t-98 94l-147 127q-53 46 -88 84t-68.5 90.5t-49.5 116.5t-16 141q0 207 124 320t340 114q74 0 134.5 -16t102 -42t73 -65.5t50 -79t31 -89
t17 -90.5t6.5 -88l-317 -41q-1 42 -2.5 69.5t-5.5 58.5t-11 50t-18.5 35.5t-29 23.5t-41.5 6q-48 -1 -73.5 -40.5t-25.5 -88.5q0 -47 11.5 -85.5t40 -74.5t46.5 -54t60 -56l141 -124q58 -52 100 -99.5t80 -108t57.5 -133t19.5 -155.5q0 -180 -120 -298.5t-315 -118.5z" />
    <glyph glyph-name="afii10055" unicode="&#x406;" horiz-adv-x="569" 
d="M109 0v1658h366v-1658h-366z" />
    <glyph glyph-name="afii10056" unicode="&#x407;" horiz-adv-x="569" 
d="M378 1803v303h269v-303h-269zM-63 1803v303h269v-303h-269zM109 0v1658h366v-1658h-366z" />
    <glyph glyph-name="afii10057" unicode="&#x408;" horiz-adv-x="666" 
d="M9 -40v255h13q104 -1 144 31q42 34 43 137v1275h366v-1289q-2 -107 -21 -179.5t-62.5 -126t-118.5 -78.5t-186 -25h-178z" />
    <glyph glyph-name="afii10058" unicode="&#x409;" horiz-adv-x="1817" 
d="M1218 242h31q103 0 145 58q40 54 40 171v17q-3 105 -44 161t-146 56h-26v-463zM21 0v258h21q53 0 86 8q39 10 69 47.5t44.5 104t22.5 180.5l74 1060h880v-700h60q244 0 369.5 -115.5t125.5 -361.5q0 -118 -27 -205t-72.5 -139t-115 -83.5t-143 -42.5t-169.5 -11h-395
v1379h-182l-50 -788q-15 -231 -66 -359.5t-146 -181.5q-92 -51 -246 -51h-12z" />
    <glyph glyph-name="afii10059" unicode="&#x40a;" horiz-adv-x="1708" 
d="M1096 242h25q103 0 146 58q39 53 39 166v22q-3 105 -43.5 161t-145.5 56h-21v-463zM1119 0l-390 1v702h-233v-702h-367v1659h367v-679h233v679h367v-702h55q244 0 369.5 -115.5t125.5 -361.5q0 -118 -27 -205t-72.5 -139t-115 -83.5t-143 -42.5t-169.5 -11z" />
    <glyph glyph-name="afii10060" unicode="&#x40b;" horiz-adv-x="1209" 
d="M235 0v1387h-222v271h820v-271h-233v-460q13 6 36.5 15.5t89 25t123.5 15.5q118 0 185.5 -61.5t67.5 -164.5v-757h-334v717q0 37 -14 54.5t-51 16.5q-39 -1 -103 -32v-756h-365z" />
    <glyph glyph-name="afii10061" unicode="&#x40c;" horiz-adv-x="1172" 
d="M535 1803l126 412h342l-259 -412h-209zM129 0v1658h367v-659h35l244 659h363l-301 -778l312 -880h-376l-242 726h-35v-726h-367z" />
    <glyph glyph-name="uni040D" unicode="&#x40d;" horiz-adv-x="1207" 
d="M500 1803l-259 412h343l124 -412h-208zM129 0v1658h290v-946l421 946h238v-1658h-295v964l-431 -964h-223z" />
    <glyph glyph-name="afii10062" unicode="&#x40e;" horiz-adv-x="1127" 
d="M574 1803q-138 0 -214.5 68t-76.5 190h147q0 -63 34 -92t110 -29q75 0 110 29.5t35 91.5h146q0 -122 -76.5 -190t-214.5 -68zM108 -327v243q20 -1 39 -1q153 0 223 51q53 39 54 120q0 36 -11 81l-369 1491h340l141 -678l66 -448l50 448l118 678h345l-341 -1542
q-22 -97 -46 -164t-61.5 -119t-82.5 -82.5t-114.5 -49.5t-151.5 -25q-60 -4 -139 -4q-29 0 -60 1z" />
    <glyph glyph-name="afii10145" unicode="&#x40f;" horiz-adv-x="1226" 
d="M485 -358l-14 358h-349v1658h366v-1381h250v1381h366v-1658h-341l-14 -358h-264z" />
    <glyph glyph-name="afii10017" unicode="&#x410;" horiz-adv-x="1127" 
d="M478 571h177l-89 642zM43 0l314 1658h414l312 -1658h-338l-57 352h-242l-56 -352h-347z" />
    <glyph glyph-name="afii10018" unicode="&#x411;" horiz-adv-x="1132" 
d="M496 242h42q104 0 146 58q40 54 39 171v17q-3 105 -43.5 161t-145.5 56h-38v-463zM129 0v1658h822v-278h-455v-422h72q244 0 369 -115.5t125 -361.5q0 -85 -14 -154t-38.5 -118.5t-62 -86.5t-80.5 -60t-98 -37t-110.5 -19.5t-122.5 -5.5h-407z" />
    <glyph glyph-name="afii10019" unicode="&#x412;" horiz-adv-x="1206" 
d="M496 995h69q118 0 161 53.5t43 167.5q0 196 -215 196h-58v-417zM496 256h76q119 0 167 58t48 183q0 140 -49 198t-171 58h-71v-497zM129 0v1658h432q93 0 165.5 -9.5t144 -37.5t118 -74.5t74.5 -126.5q26 -74 26 -172v-14q-6 -290 -244 -333q143 -19 218 -120t77 -279
v-15q0 -241 -126 -357q-130 -120 -375 -120h-510z" />
    <glyph glyph-name="afii10020" unicode="&#x413;" horiz-adv-x="944" 
d="M129 0v1658h764v-271h-397v-1387h-367z" />
    <glyph glyph-name="afii10021" unicode="&#x414;" horiz-adv-x="1420" 
d="M429 262h424v1136h-152l-19 -352q-7 -123 -19.5 -224t-26 -171.5t-35.5 -130.5t-38 -94.5t-44 -70t-44 -51t-46 -42.5zM36 -358v620h49q80 27 136.5 111t98 260.5t60.5 451.5l43 573h772v-1396h189v-620h-244l-20 358h-809l-20 -358h-255z" />
    <glyph glyph-name="afii10022" unicode="&#x415;" 
d="M122 0v1658h745v-250h-379v-410h289v-255h-289v-495h383v-248h-749z" />
    <glyph glyph-name="afii10024" unicode="&#x416;" horiz-adv-x="1625" 
d="M10 0l349 833l-339 825h342l288 -777h18v777h289v-777h18l287 777h342l-338 -825l349 -833h-330l-310 806h-18v-806h-289v806h-19l-310 -806h-329z" />
    <glyph glyph-name="afii10025" unicode="&#x417;" horiz-adv-x="1075" 
d="M545 -30q-127 0 -217.5 36.5t-142.5 107.5t-75.5 162.5t-23.5 212.5v59h343q0 -59 1 -65q1 -124 26.5 -174.5t92.5 -50.5t89 51t22 169q0 131 -40 191t-152 64q-2 0 -44.5 0.5t-44.5 0.5v226h82q116 3 157.5 62t41.5 189q0 99 -30 148.5t-97 49.5q-64 0 -92.5 -51.5
t-30.5 -146.5v-91h-343v100q0 220 126 342t340 122q219 0 342 -116t123 -335q0 -141 -58 -240.5t-146 -123.5q204 -76 204 -381q0 -118 -25 -210.5t-77.5 -162.5t-141 -107.5t-209.5 -37.5z" />
    <glyph glyph-name="afii10026" unicode="&#x418;" horiz-adv-x="1207" 
d="M129 0v1658h290v-946l421 946h238v-1658h-295v964l-431 -964h-223z" />
    <glyph glyph-name="afii10027" unicode="&#x419;" horiz-adv-x="1207" 
d="M603 1803q-138 0 -214.5 68t-76.5 190h147q0 -63 34 -92t110 -29q75 0 110 29.5t35 91.5h146q0 -122 -76.5 -190t-214.5 -68zM129 0v1658h290v-946l421 946h238v-1658h-295v964l-431 -964h-223z" />
    <glyph glyph-name="afii10028" unicode="&#x41a;" horiz-adv-x="1172" 
d="M129 0v1658h367v-659h35l244 659h363l-301 -778l312 -880h-376l-242 726h-35v-726h-367z" />
    <glyph glyph-name="afii10029" unicode="&#x41b;" horiz-adv-x="1340" 
d="M13 0v258q52 0 81.5 3t58 18.5t42.5 38t28 71.5t20.5 108.5t15.5 159.5t17 213q0 7 0.5 11t1 10.5t0.5 11.5l54 755h879v-1658h-367v1379h-182l-34 -544q-23 -348 -44 -468q-35 -193 -122 -274q-97 -90 -316 -96h-24q-50 0 -109 3z" />
    <glyph glyph-name="afii10030" unicode="&#x41c;" horiz-adv-x="1441" 
d="M117 0l27 1658h387l189 -950l203 950h374l27 -1658h-261l-25 1073l-220 -1073h-185l-230 1080l-22 -1080h-264z" />
    <glyph glyph-name="afii10031" unicode="&#x41d;" horiz-adv-x="1247" 
d="M129 0v1658h367v-670h255v670h367v-1658h-367v726h-255v-726h-367z" />
    <glyph glyph-name="afii10032" unicode="&#x41e;" horiz-adv-x="1198" 
d="M598 -23q-138 0 -235.5 36.5t-155 109t-83 170.5t-25.5 231v612q0 134 25.5 231.5t83 169.5t155 108t235.5 36q269 0 385.5 -137.5t116.5 -407.5v-612q0 -270 -116.5 -408.5t-385.5 -138.5zM598 236q33 0 57 11.5t37 29t20.5 45.5t9.5 52.5t2 58.5v795q0 33 -2 57.5
t-9.5 52t-20.5 44.5t-37 28.5t-57 11.5t-56.5 -11.5t-36.5 -28t-20 -45t-8.5 -51.5t-1.5 -58v-795q0 -35 1.5 -58.5t8.5 -52t20 -45.5t36.5 -29t56.5 -12z" />
    <glyph glyph-name="afii10033" unicode="&#x41f;" horiz-adv-x="1238" 
d="M122 0v1658h995v-1658h-361v1396h-273v-1396h-361z" />
    <glyph glyph-name="afii10034" unicode="&#x420;" horiz-adv-x="1157" 
d="M488 961h117q99 0 131.5 50.5t32.5 171.5q0 43 -2.5 72t-12 59t-27 47.5t-48.5 28.5t-75 11h-116v-440zM122 0v1658h553q220 0 329 -123t109 -358q0 -93 -16.5 -167t-48.5 -125t-74 -86.5t-98 -55.5t-114.5 -28.5t-129.5 -8.5h-144v-706h-366z" />
    <glyph glyph-name="afii10035" unicode="&#x421;" horiz-adv-x="1151" 
d="M597 -23q-139 0 -237 38.5t-154.5 113.5t-81.5 173t-25 230v591q0 135 25 234.5t81.5 174t154 112t237.5 37.5q134 0 228.5 -34t148 -100t77 -150t23.5 -195v-146h-358v167q0 39 -1 59t-7 51.5t-17.5 47.5t-35.5 28.5t-58 12.5t-58 -12.5t-36.5 -30t-20 -48t-9 -55.5
t-1.5 -62v-773q0 -100 26 -152.5t99 -52.5q33 0 56.5 12.5t35.5 29.5t18.5 48t7.5 54t1 61v174h358v-143q0 -89 -14 -161t-47.5 -135.5t-87 -106.5t-136.5 -67.5t-192 -24.5z" />
    <glyph glyph-name="afii10036" unicode="&#x422;" horiz-adv-x="914" 
d="M275 0v1387h-255v271h874v-271h-252v-1387h-367z" />
    <glyph glyph-name="afii10037" unicode="&#x423;" horiz-adv-x="1127" 
d="M108 -327v243q20 -1 39 -1q153 0 223 51q53 39 54 120q0 36 -11 81l-369 1491h340l141 -678l66 -448l50 448l118 678h345l-341 -1542q-22 -97 -46 -164t-61.5 -119t-82.5 -82.5t-114.5 -49.5t-151.5 -25q-60 -4 -139 -4q-29 0 -60 1z" />
    <glyph glyph-name="afii10038" unicode="&#x424;" horiz-adv-x="1553" 
d="M958 412h6q171 0 171 175v503q0 184 -181 187q-3 0 -14.5 -0.5t-15.5 -0.5v-862q16 -2 34 -2zM597 412q3 0 14.5 0.5t15.5 0.5v863q-5 0 -17 0.5t-16 0.5q-176 -1 -176 -186v-503q0 -176 171 -176h8zM627 -58v245l-36 -1q-30 -2 -58 -2q-181 0 -301 99q-138 115 -137 309
v495q0 193 136 307q119 100 298 100q25 0 51 -2l47 -1v267h297v-267l38 1q27 2 53 2q185 0 305 -100q138 -114 138 -308v-495q0 -192 -136 -308q-117 -100 -291 -100q-28 0 -58 3l-49 2v-246h-297z" />
    <glyph glyph-name="afii10039" unicode="&#x425;" horiz-adv-x="1055" 
d="M14 0l323 894l-309 764h347l181 -448l146 448h308l-291 -859l322 -799h-343l-201 494l-179 -494h-304z" />
    <glyph glyph-name="afii10040" unicode="&#x426;" horiz-adv-x="1405" 
d="M1099 -358l-47 358h-923v1658h367v-1410h279v1410h367v-1410h226v-606h-269z" />
    <glyph glyph-name="afii10041" unicode="&#x427;" horiz-adv-x="1239" 
d="M744 0v685q-109 -16 -193 -16q-128 0 -231.5 45.5t-167 138t-63.5 218.5v587h360v-586q0 -45 5.5 -72t24 -54t59.5 -39t106 -12q44 0 100 9v754h367v-1658h-367z" />
    <glyph glyph-name="afii10042" unicode="&#x428;" horiz-adv-x="1690" 
d="M129 0v1658h346v-1396h200v1396h346v-1396h194v1396h346v-1658h-1432z" />
    <glyph glyph-name="afii10043" unicode="&#x429;" horiz-adv-x="1875" 
d="M1519 -358l-43 358h-1347v1658h346v-1410h200v1410h347v-1410h193v1410h347v-1410h225v-606h-268z" />
    <glyph glyph-name="afii10044" unicode="&#x42a;" horiz-adv-x="1292" 
d="M640 242h59q103 0 145 58q40 54 40 171v17q-3 105 -43.5 161t-145.5 56h-55v-463zM273 0v1407h-296v251h663v-700h89q244 0 369 -115.5t125 -361.5q0 -85 -14 -154t-38.5 -118.5t-62 -86.5t-80.5 -60t-98 -37t-110.5 -19.5t-122.5 -5.5h-424z" />
    <glyph glyph-name="afii10045" unicode="&#x42b;" horiz-adv-x="1700" 
d="M1204 0v1658h367v-1658h-367zM496 242h47q103 0 145 58q40 54 40 171v17q-3 105 -44 161t-146 56h-42v-463zM129 0v1658h367v-700h76q244 0 369.5 -115.5t125.5 -361.5q0 -85 -14 -154t-38.5 -118.5t-62 -86.5t-80.5 -60t-98 -37t-110.5 -19.5t-122.5 -5.5h-412z" />
    <glyph glyph-name="afii10046" unicode="&#x42c;" horiz-adv-x="1137" 
d="M496 242h45q103 0 145 58q40 54 40 171v17q-3 105 -44 161t-146 56h-40v-463zM129 0v1658h367v-700h74q244 0 369.5 -115.5t125.5 -361.5q0 -118 -27 -205t-72.5 -139t-115 -83.5t-143 -42.5t-169.5 -11h-409z" />
    <glyph glyph-name="afii10047" unicode="&#x42d;" horiz-adv-x="1175" 
d="M578 -17q-108 0 -190 23t-136 64t-88 101.5t-48.5 131.5t-14.5 159v87h359v-108q0 -39 1 -59t7 -51.5t17.5 -47.5t35 -28.5t57.5 -12.5t58 12.5t36.5 30t20 48t9 55.5t1.5 62v288h-272v186h272v299q0 100 -26 152.5t-99 52.5q-33 0 -56.5 -12.5t-35.5 -29.5t-18 -48.5
t-7 -53.5t-1 -61v-112h-359v81q0 89 14 161t47.5 135.5t87 106.5t136.5 67.5t192 24.5q139 0 237 -38.5t154.5 -113.5t81.5 -173t25 -230v-591q0 -135 -25 -234.5t-81.5 -174t-154 -112t-237.5 -37.5z" />
    <glyph glyph-name="afii10048" unicode="&#x42e;" horiz-adv-x="1687" 
d="M1129 236q31 0 53.5 12t34.5 29t18.5 45.5t8 52t1.5 58.5v795q0 28 -1 48.5t-5 44.5t-12 40.5t-20 31.5t-32 22t-46 7q-32 0 -54 -11.5t-34 -28t-19 -44.5t-8.5 -52t-1.5 -58v-795q0 -44 3.5 -73t14 -60.5t35.5 -47.5t64 -16zM1129 -23q-129 0 -220 39.5t-142.5 116.5
t-74 177t-22.5 235v160h-179v-705h-362v1658h362v-683h179v141q0 135 22.5 234.5t74 176t142 115.5t220.5 39q129 0 219.5 -39t142.5 -115.5t74.5 -176.5t22.5 -234v-571q0 -135 -22.5 -235t-74.5 -177t-142.5 -116.5t-219.5 -39.5z" />
    <glyph glyph-name="afii10049" unicode="&#x42f;" horiz-adv-x="1238" 
d="M695 915h48v492h-52q-228 0 -228 -246t232 -246zM19 0l317 738q-98 57 -156 168.5t-58 257.5q0 113 25 197.5t70.5 141t116.5 91.5t156 49.5t195 14.5h424v-1658h-366v655h-62h-22l-243 -655h-397z" />
    <glyph glyph-name="afii10065" unicode="&#x430;" horiz-adv-x="976" 
d="M469 209q24 0 49.5 16.5t41.5 39.5v324q-80 -40 -131.5 -112.5t-51.5 -141.5q0 -58 26 -92t66 -34zM348 -21q-126 2 -200.5 89.5t-74.5 199.5q0 58 14.5 108.5t35 87.5t57.5 72t67 56.5t79.5 46t79.5 36.5t81.5 31.5t72.5 28.5v117q0 50 -15 77t-55 27q-68 0 -72 -94
l-8 -87l-312 12q0 3 1 20t1 19q15 194 120.5 286t301.5 92q175 0 266.5 -97t91.5 -259v-551q0 -114 21 -297h-297q-26 144 -28 168q-24 -81 -82 -135t-146 -54z" />
    <glyph glyph-name="afii10066" unicode="&#x431;" horiz-adv-x="986" 
d="M504 195q28 0 43.5 9.5t24.5 40.5t11.5 77t2.5 132v332q0 99 -15.5 136t-62.5 37q-37 0 -58.5 -30.5t-33.5 -105.5v-362q0 -169 14.5 -217.5t73.5 -48.5zM488 -19q-96 1 -166 22.5t-114 58.5t-70 97.5t-36 129t-10 162.5v638q0 117 14.5 205t39.5 145t66 97.5t84.5 62
t106 40t120.5 30.5t136.5 35t145.5 51l17 -255q-80 -38 -161.5 -57t-122.5 -23t-77 -24t-49 -68.5t-14 -146.5v-78q97 51 200 51q161 0 232.5 -101t71.5 -340v-289q0 -107 -20 -186t-54 -128.5t-88 -79.5t-114 -40q-54 -10 -124 -9h-14z" />
    <glyph glyph-name="afii10067" unicode="&#x432;" horiz-adv-x="1031" 
d="M437 718h80q58 0 82 35.5t24 106.5q0 74 -27 111t-102 37h-57v-290zM437 187h52q32 0 50.5 1.5t41.5 10.5t35.5 26t21 49t8.5 79q0 44 -4.5 76t-16 52t-22 31.5t-32 16.5t-36.5 6t-44 1h-54v-349zM104 0v1184h419q104 0 179.5 -14.5t121 -38.5t72.5 -63.5t36.5 -80.5
t9.5 -103q0 -108 -46 -162q-46 -56 -136 -79q121 -30 166 -102.5t45 -196.5q0 -120 -43 -193.5t-145.5 -112t-275.5 -38.5h-403z" />
    <glyph glyph-name="afii10068" unicode="&#x433;" horiz-adv-x="718" 
d="M104 0v1184h588v-224h-254v-960h-334z" />
    <glyph glyph-name="afii10069" unicode="&#x434;" horiz-adv-x="1239" 
d="M423 207h304v775h-98l-22 -246q-10 -220 -57 -341t-127 -188zM63 -322v526q135 66 204.5 210.5t82.5 398.5l32 371h651v-977h172v-529h-239l-23 322h-618l-20 -322h-242z" />
    <glyph glyph-name="afii10070" unicode="&#x435;" horiz-adv-x="962" 
d="M412 727h163v118q0 66 -22 93.5t-63 27.5q-39 0 -58.5 -32t-19.5 -109v-98zM491 -21q-196 0 -303 105t-107 296v424q0 191 107.5 295.5t302.5 104.5q197 0 295.5 -101.5t98.5 -298.5v-233h-473v-208q0 -72 18 -108.5t61 -36.5q84 0 84 115v79h310v-69
q0 -177 -103.5 -270.5t-290.5 -93.5z" />
    <glyph glyph-name="afii10072" unicode="&#x436;" horiz-adv-x="1352" 
d="M14 0l235 596l-222 588h293l188 -562h22v562h279v-562h22l201 562h293l-234 -588l248 -596h-279l-229 572h-22v-572h-279v572h-22l-215 -572h-279z" />
    <glyph glyph-name="afii10073" unicode="&#x437;" horiz-adv-x="918" 
d="M454 -21q-94 0 -163.5 22.5t-110 59t-64.5 92t-32 111.5t-8 129h268q0 -96 29 -141t91 -45q63 0 87.5 42t24.5 118q0 89 -49.5 124t-173.5 35v174q122 0 162 31.5t40 114.5q0 127 -105 127q-63 0 -88.5 -35t-25.5 -125h-264q0 86 18 153t60.5 122.5t122 85.5t192.5 30
q197 0 294 -91.5t97 -239.5q0 -112 -48.5 -174t-125.5 -84q42 -16 71 -34.5t55.5 -50.5t40 -83.5t13.5 -121.5q0 -159 -100.5 -252.5t-307.5 -93.5z" />
    <glyph glyph-name="afii10074" unicode="&#x438;" horiz-adv-x="1042" 
d="M104 0v1184h265v-632l309 632h260v-1184h-270v626l-301 -626h-263z" />
    <glyph glyph-name="afii10075" unicode="&#x439;" horiz-adv-x="1042" 
d="M521 1326q-138 0 -214.5 68t-76.5 190h147q0 -63 34 -92t110 -29q75 0 110 29.5t35 91.5h146q0 -122 -76.5 -190t-214.5 -68zM104 0v1184h265v-632l309 632h260v-1184h-270v626l-301 -626h-263z" />
    <glyph glyph-name="afii10076" unicode="&#x43a;" horiz-adv-x="1047" 
d="M104 0v1184h334v-466h49l178 466h360l-234 -559l240 -625h-354l-190 525h-49v-525h-334z" />
    <glyph glyph-name="afii10077" unicode="&#x43b;" horiz-adv-x="1159" 
d="M27 -3v227q24 -3 44 -3q96 0 128 58q38 70 54 293l49 612h752v-1184h-334v956h-135l-32 -417q-10 -138 -28.5 -232t-46 -158t-72 -99t-98.5 -49t-133 -14q-55 0 -148 10z" />
    <glyph glyph-name="afii10078" unicode="&#x43c;" horiz-adv-x="1191" 
d="M103 0l3 1184h247l243 -566l242 566h247l4 -1184h-261v618l-183 -436h-98l-183 437v-619h-261z" />
    <glyph glyph-name="afii10079" unicode="&#x43d;" horiz-adv-x="1074" 
d="M104 0v1184h334v-458h198v458h334v-1184h-334v496h-198v-496h-334z" />
    <glyph glyph-name="afii10080" unicode="&#x43e;" horiz-adv-x="989" 
d="M493 -21q-194 0 -303 100t-109 289v447q0 190 109 289.5t303 99.5t304.5 -100t110.5 -289v-447q0 -189 -110.5 -289t-304.5 -100zM493 203q48 0 66.5 35.5t18.5 106.5v493q0 72 -18.5 107.5t-66.5 35.5q-46 0 -64.5 -36.5t-18.5 -106.5v-493q0 -69 18.5 -105.5
t64.5 -36.5z" />
    <glyph glyph-name="afii10081" unicode="&#x43f;" horiz-adv-x="1046" 
d="M104 0v1184h838v-1184h-334v955h-170v-955h-334z" />
    <glyph glyph-name="afii10082" unicode="&#x440;" horiz-adv-x="1034" 
d="M528 197h2q42 1 62 37q20 38 21 97v548q0 54 -22 90q-20 32 -57 32h-9q-38 -3 -87 -39v-736q48 -29 90 -29zM104 -390v1574h334v-87q122 107 246 107h11q128 -4 190.5 -102t62.5 -248v-505q0 -169 -67.5 -269.5t-192.5 -100.5q-124 0 -250 110v-479h-334z" />
    <glyph glyph-name="afii10083" unicode="&#x441;" horiz-adv-x="959" 
d="M490 -21q-195 0 -302 105.5t-107 294.5v428q0 188 107 292.5t302 104.5q192 0 295.5 -89.5t103.5 -266.5v-125h-322v134q0 68 -18.5 93t-57.5 25t-57 -31t-18 -107v-491q0 -77 18.5 -106t56.5 -29q39 0 57.5 26.5t18.5 88.5v156h322v-143q0 -176 -104.5 -268t-294.5 -92z
" />
    <glyph glyph-name="afii10084" unicode="&#x442;" horiz-adv-x="826" 
d="M245 0v957h-212v227h760v-227h-214v-957h-334z" />
    <glyph glyph-name="afii10085" unicode="&#x443;" horiz-adv-x="959" 
d="M125 -377l-25 238q63 0 102 3t68 12.5t41.5 21.5t16.5 38t-0.5 54t-15.5 76l-288 1118h286l96 -436l79 -366l72 366l85 436h297l-304 -1204q-21 -81 -37 -130t-43.5 -93.5t-59 -66.5t-85 -39.5t-120 -22.5t-165.5 -5z" />
    <glyph glyph-name="afii10086" unicode="&#x444;" horiz-adv-x="1426" 
d="M878 217q64 0 108 53.5t44 146.5v382q0 92 -43 143t-108 51h-23v-776h22zM542 217h24v776h-25q-64 0 -104.5 -50.5t-40.5 -143.5v-382q0 -95 39 -147.5t107 -52.5zM566 -354v371h-33q-56 0 -113.5 12t-119 42.5t-108.5 76.5t-77 121.5t-30 170.5v331q0 83 26.5 152
t70.5 115.5t102.5 79t121.5 47t128 14.5h32v478h290v-478h39q83 0 160.5 -24.5t142.5 -72t104 -128t39 -183.5v-331q0 -95 -30.5 -170.5t-77.5 -121.5t-108 -76.5t-118 -42.5t-112 -12h-39v-371h-290z" />
    <glyph glyph-name="afii10087" unicode="&#x445;" horiz-adv-x="904" 
d="M20 0l252 649l-239 535h336l127 -285l111 285h259l-236 -585l268 -599h-337l-145 324l-117 -324h-279z" />
    <glyph glyph-name="afii10088" unicode="&#x446;" horiz-adv-x="1163" 
d="M883 -322l-22 322h-757v1184h333v-977h179v977h334v-977h172v-529h-239z" />
    <glyph glyph-name="afii10089" unicode="&#x447;" horiz-adv-x="1016" 
d="M577 0v476q-74 -6 -108 -6q-112 0 -188.5 19.5t-120.5 59.5t-62.5 93t-18.5 126v416h334v-398q0 -66 25 -94.5t99 -30.5q25 0 40 2v521h334v-1184h-334z" />
    <glyph glyph-name="afii10090" unicode="&#x448;" horiz-adv-x="1458" 
d="M104 0v1184h313v-958h154v958h313v-958h157v958h312v-1184h-1249z" />
    <glyph glyph-name="afii10091" unicode="&#x449;" horiz-adv-x="1593" 
d="M1287 -322l-22 322h-1161v1184h315v-977h150v977h316v-977h154v977h315v-977h172v-529h-239z" />
    <glyph glyph-name="afii10092" unicode="&#x44a;" horiz-adv-x="1139" 
d="M570 191h6q114 2 159 34t45 120q0 95 -44.5 129t-156.5 36h-9v-319zM236 0v958h-225v226h559v-477h10q129 0 217.5 -17t155.5 -57t98.5 -110.5t31.5 -175.5q0 -188 -117 -267.5t-386 -79.5h-344z" />
    <glyph glyph-name="afii10093" unicode="&#x44b;" horiz-adv-x="1516" 
d="M1077 0v1184h334v-1184h-334zM438 191h6q114 1 159 33.5t45 120.5q0 95 -44.5 129t-155.5 36h-10v-319zM104 0v1184h334v-477h10q129 0 217.5 -17t155.5 -57t98.5 -110.5t31.5 -175.5q0 -188 -117 -267.5t-386 -79.5h-344z" />
    <glyph glyph-name="afii10094" unicode="&#x44c;" horiz-adv-x="1005" 
d="M438 191h6q114 1 159 33.5t45 120.5q0 95 -44.5 129t-155.5 36h-10v-319zM104 0v1184h334v-477h10q129 0 217.5 -17t155.5 -57t98.5 -110.5t31.5 -175.5q0 -188 -117 -267.5t-386 -79.5h-344z" />
    <glyph glyph-name="afii10095" unicode="&#x44d;" horiz-adv-x="974" 
d="M484 -21q-191 0 -295 90t-104 267v60h322v-62q0 -68 18.5 -93t57.5 -25t57 31t18 107v159h-270v142h270v175q0 77 -18.5 106.5t-56.5 29.5q-40 0 -58 -26.5t-18 -88.5v-86h-322v80q0 176 104.5 267.5t294.5 91.5q195 0 302 -105t107 -294v-428q0 -189 -107 -293.5
t-302 -104.5z" />
    <glyph glyph-name="afii10096" unicode="&#x44e;" horiz-adv-x="1432" 
d="M961 218q44 0 61 35t17 107v464q0 71 -17 106.5t-61 35.5q-42 0 -59 -36t-17 -106v-464q0 -70 16.5 -106t59.5 -36zM960 -21q-182 0 -284 100t-102 289v109h-144v-477h-326v1184h326v-472h144v103q0 190 102 289.5t284 99.5q183 0 287 -100t104 -289v-447
q0 -189 -104 -289t-287 -100z" />
    <glyph glyph-name="afii10097" unicode="&#x44f;" horiz-adv-x="1055" 
d="M606 620h11v375h-10q-231 -2 -231 -180q0 -195 230 -195zM33 0l184 490q-70 38 -107 123t-37 200q0 175 106.5 273t336.5 98h435v-1184h-334v424q-70 0 -96 1l-133 -425h-355z" />
    <glyph glyph-name="uni0450" unicode="&#x450;" horiz-adv-x="962" 
d="M379 1326l-259 412h343l124 -412h-208zM412 727h163v118q0 66 -22 93.5t-63 27.5q-39 0 -58.5 -32t-19.5 -109v-98zM491 -21q-196 0 -303 105t-107 296v424q0 191 107.5 295.5t302.5 104.5q197 0 295.5 -101.5t98.5 -298.5v-233h-473v-208q0 -72 18 -108.5t61 -36.5
q84 0 84 115v79h310v-69q0 -177 -103.5 -270.5t-290.5 -93.5z" />
    <glyph glyph-name="afii10071" unicode="&#x451;" horiz-adv-x="962" 
d="M569 1326v303h269v-303h-269zM128 1326v303h269v-303h-269zM412 727h163v118q0 66 -22 93.5t-63 27.5q-39 0 -58.5 -32t-19.5 -109v-98zM491 -21q-196 0 -303 105t-107 296v424q0 191 107.5 295.5t302.5 104.5q197 0 295.5 -101.5t98.5 -298.5v-233h-473v-208
q0 -72 18 -108.5t61 -36.5q84 0 84 115v79h310v-69q0 -177 -103.5 -270.5t-290.5 -93.5z" />
    <glyph glyph-name="afii10099" unicode="&#x452;" horiz-adv-x="1046" 
d="M392 -330v167h36q46 0 79.5 9.5t55.5 31.5t35.5 48.5t20.5 71.5t9 88t2 110v444q0 63 -16.5 94t-59.5 31q-42 0 -105 -30v-735h-334v1214h-132v167h132v277h334v-277h262v-167h-262v-287q55 21 81 30t77 20.5t92 11.5q265 0 265 -359v-420q0 -114 -10.5 -196t-37 -143.5
t-64 -99t-99 -61t-134.5 -32t-177 -8.5h-50z" />
    <glyph glyph-name="afii10100" unicode="&#x453;" horiz-adv-x="718" 
d="M293 1326l126 412h342l-259 -412h-209zM104 0v1184h588v-224h-254v-960h-334z" />
    <glyph glyph-name="afii10101" unicode="&#x454;" horiz-adv-x="942" 
d="M490 -21q-195 0 -302 105.5t-107 294.5v428q0 188 107 292.5t302 104.5q192 0 295.5 -89.5t103.5 -266.5v-82h-322v83q0 68 -18.5 93.5t-57.5 25.5t-56.5 -31t-17.5 -108v-152h273v-149h-273v-175q0 -76 18.5 -105.5t56.5 -29.5q39 0 57 26.5t18 88.5v106h322v-100
q0 -176 -104.5 -268t-294.5 -92z" />
    <glyph glyph-name="afii10102" unicode="&#x455;" horiz-adv-x="865" 
d="M451 -21q-151 0 -251 71.5t-161 226.5l231 101q34 -84 80 -130q41 -42 86 -42h10q31 2 52 24.5t20 55.5q-1 17 -12.5 36.5t-43.5 50t-44.5 41.5t-57.5 49l-92 79q-201 170 -201 332q-1 96 51 173q50 76 133 116.5t180 40.5q145 0 242.5 -79t137.5 -225l-216 -101
q-20 67 -58 118t-86 54h-3q-36 1 -56 -19q-22 -20 -23 -50q-4 -48 142 -170q12 -11 18 -16l89 -80q52 -45 78 -70.5t63 -70.5t53.5 -92t16.5 -101q0 -101 -54 -176t-138.5 -111t-185.5 -36z" />
    <glyph glyph-name="afii10103" unicode="&#x456;" horiz-adv-x="517" 
d="M95 1376v235h335v-235h-335zM96 0v1184h334v-1184h-334z" />
    <glyph glyph-name="afii10104" unicode="&#x457;" horiz-adv-x="573" 
d="M374 1326v303h269v-303h-269zM-67 1326v303h269v-303h-269zM121 0v1184h334v-1184h-334z" />
    <glyph glyph-name="afii10105" unicode="&#x458;" horiz-adv-x="526" 
d="M125 1383v235h336v-235h-336zM-23 -339v239q48 -8 59 -8q90 0 90 100v1192h334v-1232q0 -145 -79 -231.5t-227 -86.5q-86 0 -177 27z" />
    <glyph glyph-name="afii10106" unicode="&#x459;" horiz-adv-x="1653" 
d="M1096 191h8q106 1 149.5 34.5t43.5 119.5q0 94 -44 129t-151 36h-6v-319zM69 -3v227q21 -1 38 -1q33 1 55 5q34 8 60 28.5t40 78t23.5 131t18.5 207.5l39 511h753v-477h12q125 0 212.5 -17t152 -57.5t95.5 -111t31 -174.5q0 -186 -114.5 -265.5t-376.5 -81.5h-346v956
h-135l-27 -355q-8 -116 -19 -201t-27.5 -153.5t-41 -113.5t-55.5 -76.5t-76 -47t-97 -20.5q-29 -3 -63 -3q-28 0 -59 2q-55 4 -93 9z" />
    <glyph glyph-name="afii10107" unicode="&#x45a;" horiz-adv-x="1483" 
d="M942 192q1 0 4.5 0.5t5.5 0.5q98 4 138 37t40 116q0 91 -40.5 126t-138.5 39h-9v-319zM104 0v1184h334v-473h170v474h334v-477h21q120 -2 203.5 -20.5t145 -59t91 -110t29.5 -170.5q0 -186 -114 -265.5t-376 -80.5l-334 -1v438h-170v-439h-334z" />
    <glyph glyph-name="afii10108" unicode="&#x45b;" horiz-adv-x="1061" 
d="M115 0v1214h-132v167h132v277h334v-277h262v-167h-262v-287q55 21 81 30t77 20.5t92 11.5q265 0 265 -359v-630h-334v640q0 63 -16.5 94t-59.5 31q-42 0 -105 -30v-735h-334z" />
    <glyph glyph-name="afii10109" unicode="&#x45c;" horiz-adv-x="1047" 
d="M463 1326l126 412h342l-259 -412h-209zM104 0v1184h334v-466h49l178 466h360l-234 -559l240 -625h-354l-190 525h-49v-525h-334z" />
    <glyph glyph-name="uni045D" unicode="&#x45d;" horiz-adv-x="1042" 
d="M417 1326l-259 412h343l124 -412h-208zM104 0v1184h265v-632l309 632h260v-1184h-270v626l-301 -626h-263z" />
    <glyph glyph-name="afii10110" unicode="&#x45e;" horiz-adv-x="959" 
d="M481 1326q-138 0 -214.5 68t-76.5 190h147q0 -63 34 -92t110 -29q75 0 110 29.5t35 91.5h146q0 -122 -76.5 -190t-214.5 -68zM125 -377l-25 238q63 0 102 3t68 12.5t41.5 21.5t16.5 38t-0.5 54t-15.5 76l-288 1118h286l96 -436l79 -366l72 366l85 436h297l-304 -1204
q-21 -81 -37 -130t-43.5 -93.5t-59 -66.5t-85 -39.5t-120 -22.5t-165.5 -5z" />
    <glyph glyph-name="afii10193" unicode="&#x45f;" horiz-adv-x="1059" 
d="M422 -323l-22 323h-296v1184h334v-979h183v979h334v-1184h-280l-18 -323h-235z" />
    <glyph glyph-name="afii10050" unicode="&#x490;" horiz-adv-x="938" 
d="M129 0v1658h549v270h215v-541h-397v-1387h-367z" />
    <glyph glyph-name="afii10098" unicode="&#x491;" horiz-adv-x="721" 
d="M104 0v1184h427v250h172v-474h-265v-960h-334z" />
    <glyph glyph-name="uni04AE" unicode="&#x4ae;" horiz-adv-x="1009" 
d="M330 0v714l-315 944h345l102 -376l56 -223l50 222l92 377h334l-312 -944v-714h-352z" />
    <glyph glyph-name="uni04AF" unicode="&#x4af;" horiz-adv-x="912" 
d="M319 -360v522l-314 1022h301l157 -612l130 612h301l-283 -1019v-525h-292z" />
    <glyph glyph-name="uni04B0" unicode="&#x4b0;" horiz-adv-x="1030" 
d="M57 583v227h255l-283 848h345l102 -376l56 -223l50 222l92 377h334l-280 -848h263v-227h-295v-583h-352v583h-287z" />
    <glyph glyph-name="uni04B1" unicode="&#x4b1;" horiz-adv-x="916" 
d="M84 -9v192h229l-308 1001h301l157 -612l130 612h301l-278 -1001h223v-192h-228v-351h-292v351h-235z" />
    <glyph glyph-name="uni04C0" unicode="&#x4c0;" horiz-adv-x="615" 
d="M125 0v1658h366v-1658h-366z" />
    <glyph glyph-name="uni04E8" unicode="&#x4e8;" horiz-adv-x="1198" 
d="M475 972h249v256q0 33 -2 57.5t-9.5 52t-20.5 44.5t-37 28.5t-57 11.5t-56.5 -11.5t-36.5 -28t-20 -45t-8.5 -51.5t-1.5 -58v-256zM598 236q33 0 57 11.5t37 29t20.5 45.5t9.5 52.5t2 58.5v312h-249v-312q0 -35 1.5 -58.5t8.5 -52t20 -45.5t36.5 -29t56.5 -12zM598 -23
q-138 0 -235.5 36.5t-155 109t-83 170.5t-25.5 231v612q0 134 25.5 231.5t83 169.5t155 108t235.5 36q269 0 385.5 -137.5t116.5 -407.5v-612q0 -270 -116.5 -408.5t-385.5 -138.5z" />
    <glyph glyph-name="uni04E9" unicode="&#x4e9;" horiz-adv-x="989" 
d="M410 680h168v158q0 72 -18.5 107.5t-66.5 35.5q-46 0 -64.5 -36.5t-18.5 -106.5v-158zM493 -21q-194 0 -303 100t-109 289v447q0 190 109 289.5t303 99.5t304.5 -100t110.5 -289v-447q0 -189 -110.5 -289t-304.5 -100zM493 203q48 0 66.5 35.5t18.5 106.5v174h-168v-174
q0 -69 18.5 -105.5t64.5 -36.5z" />
    <glyph glyph-name="uni1E02" unicode="&#x1e02;" horiz-adv-x="1204" 
d="M469 1803v314h317v-314h-317zM488 995h70q118 0 160.5 53t42.5 168q0 196 -215 196h-58v-417zM488 256h77q119 0 167 58t48 183q0 140 -49 198t-171 58h-72v-497zM122 0v1658h432q93 0 165.5 -9.5t144 -37.5t118 -74.5t74.5 -126.5q26 -74 25 -172v-14q-4 -290 -243 -333
q143 -19 218 -120t77 -279v-11q-1 -243 -127 -361q-130 -120 -374 -120h-510z" />
    <glyph glyph-name="uni1E03" unicode="&#x1e03;" horiz-adv-x="1036" 
d="M369 1780v314h317v-314h-317zM532 197h2q42 1 62 37q20 38 19 97v548q0 55 -21 90q-19 32 -58 32h-7q-41 -3 -90 -39v-736q49 -29 93 -29zM690 -21q-125 0 -251 110v-89h-334v1658h334v-561q120 107 247 107h11q128 -4 190.5 -102t62.5 -248v-505q0 -169 -67.5 -269.5
t-192.5 -100.5z" />
    <glyph glyph-name="uni1E0A" unicode="&#x1e0a;" horiz-adv-x="1196" 
d="M451 1803v314h317v-314h-317zM122 0v1658h417q163 0 270.5 -29t171.5 -95t90 -161.5t26 -239.5v-598q0 -145 -26.5 -242.5t-90 -165t-170 -97.5t-266.5 -30h-422zM488 254h56q42 0 71.5 5.5t49 19.5t31 29.5t17 45t7 56t1.5 71.5v713q0 63 -5 97t-23 62t-53.5 38.5
t-96.5 10.5h-55v-1148z" />
    <glyph glyph-name="uni1E0B" unicode="&#x1e0b;" horiz-adv-x="1031" 
d="M348 1780v314h317v-314h-317zM506 194q35 0 87 29v745q-44 26 -85 26q-44 0 -65 -35.5t-21 -92.5v-540q0 -58 20 -95t64 -37zM362 -21q-134 0 -204.5 93t-70.5 276v481q0 169 70.5 272t204.5 103q123 0 231 -93v547h334v-1658h-334v90q-113 -110 -231 -111z" />
    <glyph glyph-name="uni1E1E" unicode="&#x1e1e;" horiz-adv-x="887" 
d="M322 1803v314h317v-314h-317zM122 0v1658h718v-249h-352v-417h303v-256h-303v-736h-366z" />
    <glyph glyph-name="uni1E1F" unicode="&#x1e1f;" horiz-adv-x="656" 
d="M175 1739v314h317v-314h-317zM148 0v957h-113v227h113v83q0 58 4 99.5t16 84.5t34.5 71t58 50.5t88.5 33.5t124 11q72 0 159 -10v-248q-57 9 -70 9q-80 0 -80 -91v-93h150v-227h-150v-957h-334z" />
    <glyph glyph-name="uni1E40" unicode="&#x1e40;" horiz-adv-x="1441" 
d="M562 1803v314h317v-314h-317zM117 0l27 1658h392l184 -970l198 970h379l27 -1658h-262l-27 1100l-195 -1100h-229l-204 1108l-25 -1108h-265z" />
    <glyph glyph-name="uni1E41" unicode="&#x1e41;" horiz-adv-x="1542" 
d="M616 1328v314h317v-314h-317zM104 0v1184h327v-96q119 118 282 118q70 0 122.5 -36t79.5 -104q125 140 303 140q104 0 166 -76t62 -210v-920h-328v886q0 49 -17 71t-53 20q-54 -2 -109 -43v-14v-920h-325v886q0 48 -17.5 70.5t-53.5 20.5q-50 -2 -112 -45v-932h-327z" />
    <glyph glyph-name="uni1E56" unicode="&#x1e56;" horiz-adv-x="1162" 
d="M459 1803v314h317v-314h-317zM488 961h117q99 0 131.5 50.5t32.5 171.5q0 43 -2.5 72t-12 59t-27 47.5t-48.5 28.5t-75 11h-116v-440zM122 0v1658h553q220 0 329 -123t109 -358q0 -93 -16.5 -167t-48.5 -125t-74 -86.5t-98 -55.5t-114.5 -28.5t-129.5 -8.5h-144v-706
h-366z" />
    <glyph glyph-name="uni1E57" unicode="&#x1e57;" horiz-adv-x="1034" 
d="M368 1326v314h317v-314h-317zM528 197h2q42 1 62 37q20 38 21 97v548q0 54 -22 90q-20 32 -57 32h-9q-38 -3 -87 -39v-736q48 -29 90 -29zM104 -390v1574h334v-87q122 107 246 107h11q128 -4 190.5 -102t62.5 -248v-505q0 -169 -67.5 -269.5t-192.5 -100.5
q-124 0 -250 110v-479h-334z" />
    <glyph glyph-name="uni1E60" unicode="&#x1e60;" horiz-adv-x="1052" 
d="M383 1803v314h317v-314h-317zM562 -23q-236 0 -351.5 125.5t-124.5 400.5l314 48q2 -156 37.5 -226.5t106.5 -70.5q93 0 93 120q0 67 -24 123.5t-59 96.5t-98 94l-147 127q-53 46 -88 84t-68.5 90.5t-49.5 116.5t-16 141q0 207 124 320t340 114q74 0 134.5 -16t102 -42
t73 -65.5t50 -79t31 -89t17 -90.5t6.5 -88l-317 -41q-1 42 -2.5 69.5t-5.5 58.5t-11 50t-18.5 35.5t-29 23.5t-41.5 6q-48 -1 -73.5 -40.5t-25.5 -88.5q0 -47 11.5 -85.5t40 -74.5t46.5 -54t60 -56l141 -124q58 -52 100 -99.5t80 -108t57.5 -133t19.5 -155.5
q0 -180 -120 -298.5t-315 -118.5z" />
    <glyph glyph-name="uni1E61" unicode="&#x1e61;" horiz-adv-x="865" 
d="M276 1326v314h317v-314h-317zM451 -21q-151 0 -251 71.5t-161 226.5l231 101q34 -84 80 -130q41 -42 86 -42h10q31 2 52 24.5t20 55.5q-1 17 -12.5 36.5t-43.5 50t-44.5 41.5t-57.5 49l-92 79q-201 170 -201 332q-1 96 51 173q50 76 133 116.5t180 40.5q145 0 242.5 -79
t137.5 -225l-216 -101q-20 67 -58 118t-86 54h-3q-36 1 -56 -19q-22 -20 -23 -50q-4 -48 142 -170q12 -11 18 -16l89 -80q52 -45 78 -70.5t63 -70.5t53.5 -92t16.5 -101q0 -101 -54 -176t-138.5 -111t-185.5 -36z" />
    <glyph glyph-name="uni1E6A" unicode="&#x1e6a;" horiz-adv-x="914" 
d="M298 1803v314h317v-314h-317zM275 0v1387h-255v271h874v-271h-252v-1387h-367z" />
    <glyph glyph-name="uni1E6B" unicode="&#x1e6b;" horiz-adv-x="724" 
d="M190 1665v314h317v-314h-317zM440 -14q-55 2 -99.5 15.5t-75.5 34.5t-54 53t-36.5 66t-21.5 79t-11 86.5t-3 93.5v552h-113v218h113v359h337v-359h170v-218h-170v-612q0 -93 107 -96q13 -1 29.5 0t27 2.5t21 3.5t11.5 2v-263q-107 -18 -198 -18q-17 0 -34 1z" />
    <glyph glyph-name="Wgrave" unicode="&#x1e80;" horiz-adv-x="1432" 
d="M612 1803l-259 412h343l124 -412h-208zM257 0l-200 1658h311l98 -963l127 963h242l133 -958l100 958h307l-201 -1658h-318l-141 1000l-136 -1000h-322z" />
    <glyph glyph-name="wgrave" unicode="&#x1e81;" horiz-adv-x="1225" 
d="M508 1326l-259 412h343l124 -412h-208zM218 0l-175 1184h279l85 -672l94 672h241l81 -687l99 687h259l-179 -1184h-285l-102 663l-113 -663h-284z" />
    <glyph glyph-name="Wacute" unicode="&#x1e82;" horiz-adv-x="1432" 
d="M611 1803l126 412h342l-259 -412h-209zM257 0l-200 1658h311l98 -963l127 963h242l133 -958l100 958h307l-201 -1658h-318l-141 1000l-136 -1000h-322z" />
    <glyph glyph-name="wacute" unicode="&#x1e83;" horiz-adv-x="1225" 
d="M507 1326l126 412h342l-259 -412h-209zM218 0l-175 1184h279l85 -672l94 672h241l81 -687l99 687h259l-179 -1184h-285l-102 663l-113 -663h-284z" />
    <glyph glyph-name="Wdieresis" unicode="&#x1e84;" horiz-adv-x="1432" 
d="M802 1803v303h269v-303h-269zM361 1803v303h269v-303h-269zM257 0l-200 1658h311l98 -963l127 963h242l133 -958l100 958h307l-201 -1658h-318l-141 1000l-136 -1000h-322z" />
    <glyph glyph-name="wdieresis" unicode="&#x1e85;" horiz-adv-x="1225" 
d="M698 1326v303h269v-303h-269zM257 1326v303h269v-303h-269zM218 0l-175 1184h279l85 -672l94 672h241l81 -687l99 687h259l-179 -1184h-285l-102 663l-113 -663h-284z" />
    <glyph glyph-name="Ygrave" unicode="&#x1ef2;" horiz-adv-x="1011" 
d="M402 1803l-259 412h343l124 -412h-208zM332 0v678l-316 980h345l158 -525l143 525h333l-312 -980v-678h-351z" />
    <glyph glyph-name="ygrave" unicode="&#x1ef3;" 
d="M346 1326l-259 412h343l124 -412h-208zM136 -343v231q110 0 152 22q38 20 38 79q0 7 -1 14q-6 51 -44 186q-11 47 -138 497.5t-138 497.5h315l147 -683l112 683h315l-279 -1248q-62 -279 -423 -279h-10h-46z" />
    <glyph glyph-name="endash" unicode="&#x2013;" horiz-adv-x="1024" 
d="M1 629v229h1022v-229h-1022z" />
    <glyph glyph-name="emdash" unicode="&#x2014;" horiz-adv-x="2047" 
d="M1 671v227h2045v-227h-2045z" />
    <glyph glyph-name="afii00208" unicode="&#x2015;" horiz-adv-x="4096" 
d="M130 605v215h3837v-215h-3837z" />
    <glyph glyph-name="quoteleft" unicode="&#x2018;" horiz-adv-x="641" 
d="M117 1094q0 177 2 226q7 189 61 273.5t190 84.5l25 -106q-74 0 -99.5 -47t-25.5 -139h143v-292h-296z" />
    <glyph glyph-name="quoteright" unicode="&#x2019;" horiz-adv-x="471" 
d="M168 1074l-24 106q74 0 99.5 47t25.5 139h-144v292h297q0 -152 -3 -226q-7 -189 -60.5 -273.5t-190.5 -84.5z" />
    <glyph glyph-name="quotesinglbase" unicode="&#x201a;" horiz-adv-x="572" 
d="M192 -225l-25 106q74 0 99.5 47t25.5 139h-143v292h296q0 -177 -2 -226q-7 -189 -61 -273.5t-190 -84.5z" />
    <glyph glyph-name="quotedblleft" unicode="&#x201c;" horiz-adv-x="970" 
d="M558 1094q0 177 2 226q7 189 61 273.5t190 84.5l25 -106q-74 0 -99.5 -47t-25.5 -139h143v-292h-296zM117 1094q0 177 2 226q7 189 61 273.5t190 84.5l25 -106q-74 0 -99.5 -47t-25.5 -139h143v-292h-296z" />
    <glyph glyph-name="quotedblright" unicode="&#x201d;" horiz-adv-x="970" 
d="M610 1074l-25 106q74 0 99.5 46t25.5 139h-143v293h297q0 -154 -3 -227q-7 -188 -60.5 -272.5t-190.5 -84.5zM185 1074l-25 106q74 0 99.5 46.5t25.5 138.5h-143v293h296q0 -178 -3 -227q-6 -188 -59.5 -272.5t-190.5 -84.5z" />
    <glyph glyph-name="quotedblbase" unicode="&#x201e;" horiz-adv-x="974" 
d="M627 -223l-25 106q74 0 99.5 47t25.5 139h-143v292h296q0 -177 -2 -226q-7 -189 -61 -273.5t-190 -84.5zM186 -223l-25 106q74 0 99.5 47t25.5 139h-143v292h296q0 -177 -2 -226q-7 -189 -61 -273.5t-190 -84.5z" />
    <glyph glyph-name="dagger" unicode="&#x2020;" horiz-adv-x="840" 
d="M288 0v1011h-222v201h222v444h270v-444h217v-201h-217v-1011h-270z" />
    <glyph glyph-name="daggerdbl" unicode="&#x2021;" horiz-adv-x="840" 
d="M289 0v491h-228v183h228v317h-228v194h228v471h268v-471h224v-194h-224v-317h224v-183h-224v-491h-268z" />
    <glyph glyph-name="bullet" unicode="&#x2022;" horiz-adv-x="979" 
d="M487 386q-71 0 -135.5 24.5t-116 70t-82 118.5t-30.5 163q0 92 30.5 166t82 120t116 70.5t135.5 24.5q96 0 178 -42t135.5 -130.5t53.5 -208.5q0 -90 -31 -163t-83 -118.5t-117 -70t-136 -24.5z" />
    <glyph glyph-name="ellipsis" unicode="&#x2026;" horiz-adv-x="1356" 
d="M979 1v314h317v-314h-317zM516 0v314h317v-314h-317zM60 0v314h317v-314h-317z" />
    <glyph glyph-name="perthousand" unicode="&#x2030;" horiz-adv-x="2964" 
d="M688 0l504 1658h189l-504 -1658h-189zM2475 -3q-209 0 -299.5 108t-90.5 335v70q0 230 88 331.5t302 101.5q213 0 302.5 -100.5t89.5 -328.5v-76q0 -226 -91.5 -333.5t-300.5 -107.5zM2475 212q26 0 45 6.5t31.5 22t20 33.5t11 48.5t4.5 58t1 71.5v50q0 56 -1 84t-7 60.5
t-18 46.5t-33 23.5t-54 9.5t-54.5 -9.5t-33.5 -24t-17.5 -46t-7 -60.5t-1.5 -83v-52q0 -53 1.5 -84.5t8 -65t18.5 -50.5t33.5 -28t52.5 -11zM1589 -3q-208 0 -299 108t-91 335v70q0 230 88.5 331.5t301.5 101.5t302.5 -100.5t89.5 -328.5v-76q0 -226 -91.5 -333.5
t-300.5 -107.5zM1589 212q31 0 52.5 11t33.5 28.5t18.5 51t8 65t1.5 84.5v50q0 56 -1 84t-7 60.5t-18 46.5t-33.5 23.5t-54.5 9.5t-54.5 -9.5t-33.5 -24t-17.5 -46t-7 -60.5t-1.5 -83v-52q0 -53 1.5 -84.5t8 -65t18.5 -50.5t33.5 -28t52.5 -11zM481 715q-209 0 -299.5 108
t-90.5 335v70q0 230 88.5 331.5t301.5 101.5t302.5 -100.5t89.5 -328.5v-76q0 -226 -91.5 -333.5t-300.5 -107.5zM481 930q31 0 52.5 11t33.5 28.5t18.5 51t8 65t1.5 84.5v50q0 56 -1 84t-7 60.5t-18 46.5t-33.5 23.5t-54.5 9.5t-54.5 -9.5t-33.5 -24t-17.5 -46t-7 -60.5
t-1.5 -83v-52q0 -53 1.5 -84.5t8 -65t18.5 -50.5t33.5 -28t52.5 -11z" />
    <glyph glyph-name="guilsinglleft" unicode="&#x2039;" horiz-adv-x="583" 
d="M494 41l-424 452v175l424 452v-324l-220 -214l220 -217v-324z" />
    <glyph glyph-name="guilsinglright" unicode="&#x203a;" horiz-adv-x="564" 
d="M83 75v323l227 217l-227 214v324l424 -481v-116z" />
    <glyph glyph-name="fraction" unicode="&#x2044;" horiz-adv-x="653" 
d="M29 0l355 1658h240l-354 -1658h-241z" />
    <glyph glyph-name="uni2074" unicode="&#x2074;" horiz-adv-x="926" 
d="M250 896h190v410zM440 449v292h-365v153l363 764h298v-762h127v-155h-127v-292h-296z" />
    <glyph glyph-name="Euro" unicode="&#x20ac;" horiz-adv-x="1144" 
d="M615 -23q-139 0 -236.5 38.5t-154 113.5t-81.5 173t-25 230v113h-104v118h104v121h-104v119h104v120q0 135 25 234.5t81.5 174t154 112t236.5 37.5q108 0 190.5 -23t136.5 -64t88 -101.5t48.5 -131.5t14.5 -159v-101h-359v122q0 39 -1 59t-7 51.5t-17.5 47.5t-35 28.5
t-57.5 12.5t-58 -12.5t-36.5 -30t-20 -48t-9 -55.5t-1.5 -62v-211h209v-119h-209v-121h209v-118h-209v-204q0 -100 26 -152.5t99 -52.5q33 0 56.5 12.5t35.5 29.5t18 48.5t7 53.5t1 61v86h359v-55q0 -112 -23 -198t-76 -155t-148.5 -105.5t-230.5 -36.5z" />
    <glyph glyph-name="afii61289" unicode="&#x2113;" horiz-adv-x="1251" 
d="M747 1107q247 322 247 445q0 37 -22 56q-22 18 -59 18q-33 0 -78 -14l-7 -2zM446 491l-168 -196l-100 116l313 381l122 818q25 165 151 256q92 65 195 65q15 0 30 -1q120 -12 179 -104q43 -66 43 -156q0 -95 -47 -216q-86 -223 -323 -501l-146 -170l-69 -431
q-7 -41 -7 -75q0 -65 26 -98.5t66 -33.5q21 -1 47 9q74 26 153 118l93 -124q-59 -66 -131 -109t-141 -58q-34 -7 -67 -7t-65 8q-64 16 -108.5 58.5t-63.5 123.5q-10 44 -10 96q0 44 7 93z" />
    <glyph glyph-name="afii61352" unicode="&#x2116;" horiz-adv-x="2135" 
d="M1639 -21q-194 0 -303 100t-109 289v447q0 190 109 289.5t303 99.5t304.5 -100t110.5 -289v-447q0 -189 -110.5 -289t-304.5 -100zM1639 203q48 0 66.5 35.5t18.5 106.5v493q0 72 -18.5 107.5t-66.5 35.5q-46 0 -64.5 -36.5t-18.5 -106.5v-493q0 -69 18.5 -105.5
t64.5 -36.5zM122 0v1658h258l341 -796v796h304v-1658h-248l-342 858v-858h-313z" />
    <glyph glyph-name="trademark" unicode="&#x2122;" horiz-adv-x="1775" 
d="M314 656v810h-193v192h601v-192h-186v-810h-222zM802 656v1002h240l168 -610l172 610h242v-1002h-190v565l-168 -565h-102l-174 569v-569h-188z" />
    <glyph glyph-name="estimated" unicode="&#x212e;" horiz-adv-x="953" 
d="M364 662h270v309q0 76 -29 114t-109 38t-106 -39t-26 -127v-295zM499 -21q-420 0 -420 354v511q0 360 413 360q202 0 297 -84t95 -276v-273h-520v-332q0 -46 4 -73t18.5 -54t46 -39.5t81.5 -12.5q49 0 79.5 12t44.5 38t18 53t4 72v222h223v-158q0 -174 -94.5 -247
t-289.5 -73z" />
    <glyph glyph-name="partialdiff" unicode="&#x2202;" horiz-adv-x="1081" 
d="M496 188q22 0 39 4t37.5 16.5t34 42t17.5 73.5l57 550q-67 36 -121 36q-53 0 -84 -32t-36 -87l-48 -486v-13q0 -45 27.5 -74.5t76.5 -29.5zM488 -26q-78 0 -148.5 17.5t-132 54t-98 100.5t-36.5 148q0 24 2 36l40 460q11 150 95.5 239t214.5 89q76 0 152.5 -30t124.5 -74
q6 48 6 91q0 156 -95 241t-310 104l74 228q58 0 112.5 -6t120 -23.5t121.5 -45.5t109.5 -76.5t91 -111.5t60.5 -155.5t23 -204.5l-45 -561q-7 -82 -21 -150.5t-31.5 -118.5t-43.5 -89.5t-50 -66t-59 -44.5t-63 -28t-69.5 -15.5t-71 -6.5t-73.5 -1z" />
    <glyph glyph-name="product" unicode="&#x220f;" horiz-adv-x="1248" 
d="M106 -390v2048h1036v-2048h-325v1785h-386v-1785h-325z" />
    <glyph glyph-name="summation" unicode="&#x2211;" horiz-adv-x="879" 
d="M54 -390l259 1062l-259 986h770v-250h-382l230 -730l-237 -820h393v-248h-774z" />
    <glyph glyph-name="minus" unicode="&#x2212;" horiz-adv-x="966" 
d="M141 692v214h684v-214h-684z" />
    <glyph glyph-name="uni2215" unicode="&#x2215;" horiz-adv-x="864" 
d="M88 0l505 1658h183l-505 -1658h-183z" />
    <glyph glyph-name="uni2219" unicode="&#x2219;" horiz-adv-x="457" 
d="M72 616v309h315v-309h-315z" />
    <glyph glyph-name="radical" unicode="&#x221a;" horiz-adv-x="1185" 
d="M483 0l-179 974h-255v210h526l41 -250l65 -481l56 481l90 724h334l-287 -1658h-391z" />
    <glyph glyph-name="infinity" unicode="&#x221e;" horiz-adv-x="1335" 
d="M978 462q28 1 53 29t25 92t-25.5 92t-52.5 28h-7q-83 0 -209 -120q128 -121 210 -121h6zM362 452q85 2 223 131q-138 128 -223 131h-5q-36 0 -61 -30q-27 -32 -27 -101t27 -101q25 -30 61 -30h5zM363 191q-75 0 -135.5 33.5t-97.5 90t-56 125t-19 143.5t19 143.5
t56 124.5t97.5 89.5t135.5 33.5q87 0 161.5 -49t147.5 -130q158 158 290 158h5q94 -1 166.5 -53t109.5 -135.5t37 -181.5q0 -152 -86 -260.5t-227 -109.5h-5q-134 0 -290 158q-73 -81 -147.5 -130.5t-161.5 -49.5z" />
    <glyph glyph-name="integral" unicode="&#x222b;" horiz-adv-x="701" 
d="M191 -390q-63 0 -159 11v248q47 -10 70 -10q80 0 80 92v1383q0 57 4.5 98.5t16.5 83.5t34.5 70t58 50.5t88.5 33t124 10.5q70 0 159 -10v-248q-5 0 -31 4.5t-40 4.5q-80 0 -80 -92v-1382q0 -70 -6 -118t-25.5 -94.5t-55 -74t-95 -44t-143.5 -16.5z" />
    <glyph glyph-name="approxequal" unicode="&#x2248;" horiz-adv-x="989" 
d="M672 852q-39 0 -92 19t-95 41.5t-86.5 41.5t-70.5 19t-67.5 -27t-73.5 -71l-105 140q43 73 112 132t130 59q50 0 119 -30t130 -59.5t91 -29.5q52 0 139 98l116 -120q-36 -82 -107.5 -147.5t-139.5 -65.5zM672 410q-39 0 -92 19t-95 41.5t-86.5 41.5t-70.5 19t-67.5 -27
t-73.5 -71l-105 139q43 73 112 132.5t130 59.5q50 0 119 -30t130 -59.5t91 -29.5q52 0 139 97l116 -120q-36 -81 -108 -146.5t-139 -65.5z" />
    <glyph glyph-name="notequal" unicode="&#x2260;" horiz-adv-x="925" 
d="M121 0l153 508h-128v204h191l56 184h-247v204h309l170 558h183l-170 -558h160v-204h-222l-57 -184h279v-204h-341l-154 -508h-182z" />
    <glyph glyph-name="lessequal" unicode="&#x2264;" horiz-adv-x="825" 
d="M62 0v214h685v-214h-685zM726 320l-633 442v261l633 444v-293l-393 -280l393 -283v-291z" />
    <glyph glyph-name="greaterequal" unicode="&#x2265;" horiz-adv-x="861" 
d="M96 14v214h685v-214h-685zM112 320v291l394 283l-394 280v293l634 -444v-261z" />
    <glyph glyph-name="lozenge" unicode="&#x25ca;" horiz-adv-x="1001" 
d="M496 217l221 376l-223 361l-213 -361zM436 0l-364 593l360 591h120l377 -591l-373 -593h-120z" />
    <glyph glyph-name="uniFB00" unicode="&#xfb00;" horiz-adv-x="1195" 
d="M721 0v957h-113v227h113v83q0 58 4 99.5t16 84.5t34.5 71t58 50.5t88.5 33.5t124 11q72 0 159 -10v-248q-57 9 -70 9q-80 0 -80 -91v-93h150v-227h-150v-957h-334zM148 0v957h-113v227h113v83q0 58 4 99.5t16 84.5t34.5 71t58 50.5t88.5 33.5t124 11q72 0 159 -10v-248
q-57 9 -70 9q-80 0 -80 -91v-93h150v-227h-150v-957h-334z" />
    <glyph glyph-name="uniFB01" unicode="&#xfb01;" horiz-adv-x="1130" 
d="M716 1383v235h311v-235h-311zM143 0v957h-113v227h113v83q0 84 15 146t50.5 109.5t98 72t153.5 24.5q64 0 143 -12v-230q-28 5 -48 5q-40 0 -59 -22.5t-19 -77.5v-98h549v-1184h-331v957h-218v-957h-334z" />
    <glyph glyph-name="uniFB02" unicode="&#xfb02;" horiz-adv-x="1132" 
d="M469 949v-949h-333v949h-114v235h114v83q0 45 2.5 78t13.5 76t29.5 73.5t54 62.5t84 51.5t122 32t165.5 12.5q181 0 435 -46v-1607h-335v1424q-35 4 -71 4q-57 0 -92.5 -11.5t-51 -36.5t-19.5 -49t-4 -65v-82h127v-235h-127z" />
    <glyph glyph-name="uniFB03" unicode="&#xfb03;" horiz-adv-x="1646" 
d="M136 0v959h-114v225h114v83q0 58 4 99.5t16 84.5t34.5 71t58 50.5t88.5 33.5t124 11q50 0 137 -10v-248q-57 9 -62 9q-35 0 -51 -21.5t-16 -69.5v-93h209v83q0 58 4 99.5t16 84.5t34.5 71t58 50.5t88.5 33.5t124 11q55 0 142 -10v-248q-60 9 -64 9q-69 0 -69 -91v-93h539
v-1184h-334v959h-205v-959h-334v959h-209v-959h-333zM1244 1383v235h307v-235h-307z" />
    <glyph glyph-name="uniFB04" unicode="&#xfb04;" horiz-adv-x="1589" 
d="M148 0v957h-113v227h113v83q0 58 4 99.5t16 84.5t34.5 71t58 50.5t88.5 33.5t124 11q72 0 159 -10v-248q-57 9 -70 9q-80 0 -80 -91v-93h150v-227h-150v-957h-334zM633 0v957h-113v227h113v83q0 58 4 99.5t16 84.5t34.5 71t58 50.5t88.5 33.5t124 11q72 0 159 -10v-248
q-57 9 -70 9q-80 0 -80 -91v-93h150v-227h-150v-957h-334zM1149 1383v235h336v-235h-336zM1151 0v1184h334v-1184h-334z" />
    <glyph glyph-name="foundryicon" horiz-adv-x="1514" 
d="M335 251l152 492l-416 309l519 7l162 492l170 -492h519l-418 -316l154 -492l-425 297z" />
    </font>
</defs>
</svg>
